Джек и бобовый стебель / Jack and the Beanstalk (2010) BDRip 720p | P

 
Автор Сообщение

Swager ®

Пол:

Стаж: 1 год 2 месяца

Сообщений: 541



Награды: Нет

Торрент-статистика

Создавать темы 31-Май-2016 08:38

[Цитировать]

Информация о фильме
Название: Джек и бобовый стебель
Оригинальное название: Jack and the Beanstalk
Год выхода: 2010
Жанр: Фэнтези, комедия, приключения, семейный
Режиссер: Гэри Дж. Танниклифф
В ролях: Колин Форд, Хлоя Грейс Морец, Кристофер Ллойд, Адаир Тишлер, Билли Унгер, Эмили Роуз Эверхард, Садье Эбьер-Дейст, Виктория Атилано, Аталая Атилано, Энтони Скиллмэн, Сэмми Ханратти, Дэниэл Робак, Уоллес Шон, Кэти Сагал, Гилберт Готтфрид, Джеймс Карен, Мэдисон Девенпорт, Дэвид Мэтти, Джеймс Эрл Джонс
О фильме:
Началось все с отважного поступка: чтобы помочь маме, Джек отдает все самое ценное в обмен на несколько бобовых зернышек. Получив дома заслуженный нагоняй, разочарованный в чародействе паренек выбросил их в окошко. Каково же было его удивление, когда на следующее утро стебельки проросли выше облаков! Уж теперь-то, столкнувшись с неведомыми чудесами и опасностями, юный Джек всем покажет, на что способен настоящий герой.

Производство: США, Avalon Family Entertainment
Продолжительность: 01:34:28
Перевод: Профессиональный многоголосый [лицензия]
Файл
Качество: BDRip 720p
Контейнер: MKV
Кодек: x264
Видео: 1280x720, 23.976 fps, MPEG-4 AVC ~5500 kbps avg, 0.249 bit/pixel
Аудио 1: 48 kHz, AC3 Dolby Digital, 3/2 (L,C,R,l,r) + LFE ch, 448 kbps
Аудио 2: 48 kHz, DTS, 3/2 (L,C,R,l,r) + LFE ch, 1510 kbps

MediaInfo

General
Complete name : Djek.i.bobovuj.stebel.2010.720p.BDRip.x264-Bikc.mkv
Format : Matroska
Format version : Version 2
File size : 4.89 GiB
Duration : 1h 34mn
Overall bit rate : 7 415 Kbps
Encoded date : UTC 2013-05-10 17:51:47
Writing application : mkvmerge v4.2.0 ('No Talking') збірка від Jul 28 2010 18:38:23
Writing library : libebml v1.0.0 + libmatroska v1.0.0
Video
ID : 1
Format : AVC
Format/Info : Advanced Video Codec
Format profile : High@L4.1
Format settings, CABAC : Yes
Format settings, ReFrames : 2 frames
Muxing mode : Header stripping
Codec ID : V_MPEG4/ISO/AVC
Duration : 1h 34mn
Bit rate mode : Constant
Bit rate : 5 500 Kbps
Width : 1 280 pixels
Height : 720 pixels
Display aspect ratio : 16:9
Frame rate : 23.976 fps
Color space : YUV
Chroma subsampling : 4:2:0
Bit depth : 8 bits
Scan type : Progressive
Bits/(Pixel*Frame) : 0.249
Stream size : 3.50 GiB (72%)
Audio #1
ID : 2
Format : AC-3
Format/Info : Audio Coding 3
Mode extension : CM (complete main)
Muxing mode : Header stripping
Codec ID : A_AC3
Duration : 1h 34mn
Bit rate mode : Constant
Bit rate : 448 Kbps
Channel(s) : 6 channels
Channel positions : Front: L C R, Side: L R, LFE
Sampling rate : 48.0 KHz
Bit depth : 16 bits
Compression mode : Lossy
Stream size : 303 MiB (6%)
Title : Mnogogolosuj
Language : Russian
Audio #2
ID : 3
Format : DTS
Format/Info : Digital Theater Systems
Muxing mode : Header stripping
Codec ID : A_DTS
Duration : 1h 34mn
Bit rate mode : Constant
Bit rate : 1 510 Kbps
Channel(s) : 6 channels
Channel positions : Front: L C R, Side: L R, LFE
Sampling rate : 48.0 KHz
Bit depth : 24 bits
Compression mode : Lossy
Stream size : 1 020 MiB (20%)

Скриншоты

[Профиль] [ЛС]
Кто просматривает тему:

Показать сообщения:    

Текущее время: Сегодня 16:36

Часовой пояс: GMT



Вы не можете начинать темы
Вы не можете отвечать на сообщения
Вы не можете редактировать свои сообщения
Вы не можете удалять свои сообщения
Вы не можете голосовать в опросах
Вы не можете прикреплять файлы к сообщениям
Вы не можете скачивать файлы