Джек Айриш / Jack Irish [S01-02] (2012-2014) BDRip 720p | AlexFilm & Agatha Studdio

 
Автор Сообщение

достали все ®

Пол:

Стаж: 1 год 8 месяцев

Сообщений: 6577



Награды: 12 (Подробнее)

Top Releaser 4 (Количество: 1) Mega Seeder 4 (Количество: 1) Top Releaser 2 (Количество: 1)
Торрент-статистика

Создавать темы 02-Апр-2016 11:50

[Цитировать]

Год выпуска: 2012-2014
Страна: Австралия
Жанр: драма, криминал, детектив
Продолжительность: 01:43:57 + 01:37:42 + 01:26:53
Озвучание: профессиональное многоголосое закадровое (AlexFilm & Agatha Studdio)
Субтитры: русские (только в 3 части), английские
Режиссёр: Джеффри Уокер
В ролях: Гай Пирс, Марта Дюссельдорп, Аарон Педерсен, Рой Биллинг, Шэйн Джейкобсон, Дэмиен Ричардсон, Вадим Гловна, Колин Фрилз, Эмма Бут, Стив Бисли, Маршалл Напье, Риз Малдун, Тотти Голдсмит, Колин Хэй, Николас Белл, Дон Хани, Диана Гленн, Мартин Сакс, Бэрри Хамфриз...
Описание: Джек Айриш (Гай Пирс) - человек, пытающийся вновь собрать свою жизнь воедино. Бывший адвокат, чей мир взорвался после того, как его жену Изабель убил клиент, Джек попытался полностью раствориться в алкоголе. Впрочем, благодаря друзьям он не слишком преуспел в этой попытке. Он бросил заниматься уголовным правом и сейчас просто живет полноценной "мужской жизнью": спорт, выпивка, искусство, ставки, драки, редкая любовь...
Он работает на Гарри Странга, выбивая долги и помогая манипулировать ставками на скачках. Еще его можно найти в мебельной мастерской Чарли Тауба, где он обучается старинным методам работы с деревом. А его вторым домом стал паб Принц Пруссии - последняя цитадель футбольного клуба Фицрой, легендой которого был его отец. Он успешно избегает своего прошлого, до тех пор, пока прошлое не находит его само...

Перевод: vipere
Редактор перевода: Agatha (1 и 2), AF (3)
Роли озвучивали: Владимир Курдов, Константин Погодаев, Семён Ващенко, Татьяна Манетина.
Качество: BDRip 1080p (EbP)
Формат: MKV
Видео кодек: x264
Аудио кодек: DTS
Видео: 1920x1080 (1920x1064 в 1 части), 23.976 fps, MPEG-4 AVC ~11.8 Mbps avg, 0.24 bit/pixel
Аудио Rus: 48 kHz/16bit, DTS, 2/0 (L,R) ch, ~768.00 kbps (в 3 части 48 kHz/24bit, DTS, 2/0 (L,R) ch, ~1510.00 kbps)
Аудио Eng: 48 kHz/16bit, DTS, 2/0 (L,R) ch, ~768.00 kbps (в 3 части 48 kHz/24bit, DTS, 2/0 (L,R) ch, ~1510.00 kbps)

M/I

Format : Matroska
Format version : Version 4 / Version 2
File size : 9.68 GiB
Duration : 1h 43mn
Overall bit rate : 13.3 Mbps
Movie name : Jack Irish: Bad Debts
Encoded date : UTC 2014-10-20 15:16:22
Writing application : mkvmerge v7.2.0 ('On Every Street') 64bit built on Sep 13 2014 15:52:10
Writing library : libebml v1.3.0 + libmatroska v1.4.1
Video
ID : 1
Format : AVC
Format/Info : Advanced Video Codec
Format profile : High@L4.1
Format settings, CABAC : Yes
Format settings, ReFrames : 4 frames
Codec ID : V_MPEG4/ISO/AVC
Duration : 1h 43mn
Bit rate : 11.8 Mbps
Width : 1 920 pixels
Height : 1 064 pixels
Display aspect ratio : 16:9
Frame rate mode : Constant
Frame rate : 23.976 fps
Color space : YUV
Chroma subsampling : 4:2:0
Bit depth : 8 bits
Scan type : Progressive
Bits/(Pixel*Frame) : 0.241
Stream size : 8.38 GiB (86%)
Writing library : x264 core 129 r2230 1cffe9f
Encoding settings : cabac=1 / ref=4 / deblock=1:-3:-3 / analyse=0x3:0x113 / me=umh / subme=9 / psy=1 / psy_rd=1.05:0.00 / mixed_ref=1 / me_range=16 / chroma_me=1 / trellis=2 / 8x8dct=1 / cqm=0 / deadzone=21,11 / fast_pskip=0 / chroma_qp_offset=-2 / threads=12 / lookahead_threads=2 / sliced_threads=0 / nr=0 / decimate=0 / interlaced=0 / bluray_compat=0 / constrained_intra=0 / bframes=8 / b_pyramid=2 / b_adapt=2 / b_bias=0 / direct=3 / weightb=1 / open_gop=0 / weightp=2 / keyint=250 / keyint_min=23 / scenecut=40 / intra_refresh=0 / rc=2pass / mbtree=0 / bitrate=11800 / ratetol=1.0 / qcomp=0.60 / qpmin=0 / qpmax=69 / qpstep=4 / cplxblur=20.0 / qblur=0.5 / ip_ratio=1.40 / pb_ratio=1.30 / aq=1:0.60
Language : English
Default : Yes
Forced : No
Audio #1
ID : 2
Format : DTS
Format/Info : Digital Theater Systems
Mode : 16
Format settings, Endianness : Big
Codec ID : A_DTS
Duration : 1h 43mn
Bit rate mode : Constant
Bit rate : 768 Kbps
Channel(s) : 2 channels
Channel positions : Front: L R
Sampling rate : 48.0 KHz
Bit depth : 16 bits
Compression mode : Lossy
Stream size : 571 MiB (6%)
Language : Russian
Default : Yes
Forced : No
Audio #2
ID : 3
Format : DTS
Format/Info : Digital Theater Systems
Mode : 16
Format settings, Endianness : Big
Codec ID : A_DTS
Duration : 1h 43mn
Bit rate mode : Constant
Bit rate : 768 Kbps
Channel(s) : 2 channels
Channel positions : Front: L R
Sampling rate : 48.0 KHz
Bit depth : 16 bits
Compression mode : Lossy
Stream size : 571 MiB (6%)
Language : English
Default : No
Forced : No
Text #1
ID : 4
Format : UTF-8
Codec ID : S_TEXT/UTF8
Codec ID/Info : UTF-8 Plain Text
Language : English
Default : No
Forced : No
Text #2
ID : 5
Format : UTF-8
Codec ID : S_TEXT/UTF8
Codec ID/Info : UTF-8 Plain Text
Title : SDH
Language : English
Default : No
Forced : No
Menu
00:00:00.000 : en:Chapter 1
00:13:11.958 : en:Chapter 2
00:26:32.633 : en:Chapter 3
00:42:16.743 : en:Chapter 4
00:58:56.616 : en:Chapter 5
01:13:38.247 : en:Chapter 6
01:25:53.690 : en:Chapter 7
01:42:52.625 : en:Chapter 8

Скриншоты

[Профиль] [ЛС]
Кто просматривает тему:

Показать сообщения:    

Текущее время: Сегодня 08:12

Часовой пояс: GMT



Вы не можете начинать темы
Вы не можете отвечать на сообщения
Вы не можете редактировать свои сообщения
Вы не можете удалять свои сообщения
Вы не можете голосовать в опросах
Вы не можете прикреплять файлы к сообщениям
Вы не можете скачивать файлы