Джейсон Борн: Квадрология / Jason Bourne: Quadrilogy (2002-2012) BDRip 1080p | 60 fps

 
Автор Сообщение

sergej644 ®

Пол:

Стаж: 4 года 11 месяцев

Сообщений: 6046

Откуда: Soviet Union



Награды: Нет

Торрент-статистика

Создавать темы 22-Янв-2015 22:00

[Цитировать]

Джейсон Борн / Jason Bourne (2002-2012) BDRip [1080p] [hand made 60fps] [Квадрология]- Жанр: Боевик, Триллер, Детектив
Года производства: 2002, 2004, 2007, 2012
Произведено: США, Германия, Чехия
Продолжительность: 01:58:37; 01:37:52; 01:55:19; 02:15:02
Описание
Джейсон Борн (настоящее имя Девид Вебб) — персонаж романов Роберта Ладлэма, бывший агент ЦРУ проекта «Тредстоун» («Treadstone»). Обладает абсолютной реакцией и интуицией. В совершенстве владеет приёмами рукопашного боя и знаниями в области огнестрельного оружия, знает несколько языков
Автор рипа: Tiberiumsun69

Внимание!

Перед скачиванием обязательно проверьте Сэмплы на своем оборудовании.

Дополнительная информация

В 2,5 раза больше кадров!
В 2,5 раза плавнее! (59,94 fps)
Приятного просмотра. =)

Идентификация Борна

Идентификация Борна / The Bourne Identity- Год выпуска: 2002
Жанр: Боевик, Триллер, Детектив
Производство: США, Германия, Чехия
Описание фильма:
Команда итальянского рыболовецкого судна находит в водах Средиземного моря тело мужчины. У него два пулевых ранения в спине и имплантированный в бедро микрофильм, помеченный номером швейцарского банка. Когда незнакомец приходит в себя, оказывается, что он не помнит кто он, и что с ним случилось, однако он может говорить на нескольких языках и обладает другими необычными способностями.
Получив в Цюрихе деньги с указанного банковского счета, он узнает свое имя — Джейсон Борн. Но настоящее это его имя или нет? Пытаясь восстановить свое прошлое, он находит свой адрес в Париже, но вместе с этим понимает, что отслеживается убийцей. Борн уговаривает немецкую студентку Мэри отвезти его в Париж, чтобы выяснить все о своем прошлом и понять, кто хочет его убить…
Режиссер: Даг Лайман
Актеры: Мэтт Дэймон, Франка Потенте, Крис Купер, Клайв Оуэн, Брайан Кокс, Адевале Акинойе-Агбаже, Гэбриел Манн, Джулия Стайлз, Тим Даттон, Уолтон Гоггинс
Продолжительность: 01:58:37
Качество видео: BDRip
Перевод: Дублированный
Язык субтитров: Rus (форс.), Rus (полные), Eng (полные)
Вид субтитров: Вшитые

Видеокодек: MPEG-4 AVC/H.264
Битрейт видео: ~8229 kb/s
Размер кадра: 1920*816
Аудио 1 Русский: AC3 5.1, 640 kb/s
Аудио 2 Английский: AC3 5.1, 640 kb/s
Сэмпл: СсылкаСкриншоты

MI

Общее
Уникальный идентификатор                 : 194693083933471066602802236355365618050 (0x92788626E996A0AF8290138380E0C182)
Полное имя                               : F:Джейсон Борн 1080p 60fpsБорн 1 1080p 60fps.mkv
Формат                                   : Matroska
Версия формата                           : Version 4 / Version 2
Размер файла                             : 8,04 Гбайт
Продолжительность                        : 1 ч. 58 м.
Общий поток                              : 9702 Кбит/сек
Дата кодирования                         : UTC 2014-07-10 14:58:23
Программа кодирования                    : mkvmerge v7.0.0 ('Where We Going') 64bit built on Jun  9 2014 15:16:27
Библиотека кодирования                   : libebml v1.3.0 + libmatroska v1.4.1
_STATISTICS_WRITING_APP                  : mkvmerge v7.0.0 ('Where We Going') 64bit built on Jun  9 2014 15:16:27
_STATISTICS_WRITING_DATE_UTC             : 2014-07-10 14:58:23
_STATISTICS_TAGS                         : BPS DURATION NUMBER_OF_FRAMES NUMBER_OF_BYTES
DURATION                                 : 01:50:36.902000000
NUMBER_OF_FRAMES                         : 1130
NUMBER_OF_BYTES                          : 34784
Видео
Идентификатор                            : 1
Формат                                   : AVC
Формат/Информация                        : Advanced Video Codec
Профиль формата                          : High@L4.1
Параметр CABAC формата                   : Да
Параметр ReFrames формата                : 4 кадра
Идентификатор кодека                     : V_MPEG4/ISO/AVC
Продолжительность                        : 1 ч. 58 м.
Битрейт                                  : 8229 Кбит/сек
Ширина                                   : 1920 пикселей
Высота                                   : 816 пикселей
Соотношение сторон                       : 2,35:1
Режим частоты кадров                     : Постоянный
Частота кадров                           : 59,880 кадров/сек
Частота кадров в оригинале               : 59,940 кадров/сек
Цветовое пространство                    : YUV
Субдискретизация насыщенности            : 4:2:0
Битовая глубина                          : 8 бит
Тип развёртки                            : Прогрессивная
Бит/(Пиксели*Кадры)                      : 0.088
Размер потока                            : 6,82 Гбайт (85%)
Библиотека кодирования                   : x264 core 130 r2273 b3065e6
Настройки программы                      : cabac=1 / ref=4 / deblock=1:-1:-1 / analyse=0x3:0 / me=umh / subme=9 / psy=1 / psy_rd=1.00:0.10 / mixed_ref=1 / me_range=24 / chroma_me=0 / trellis=1 / 8x8dct=1 / cqm=0 / deadzone=21,11 / fast_pskip=0 / chroma_qp_offset=-3 / threads=12 / lookahead_threads=1 / sliced_threads=0 / nr=0 / decimate=0 / interlaced=0 / bluray_compat=0 / constrained_intra=0 / bframes=5 / b_pyramid=2 / b_adapt=2 / b_bias=0 / direct=1 / weightb=1 / open_gop=0 / weightp=2 / keyint=599 / keyint_min=59 / scenecut=40 / intra_refresh=0 / rc=crf / mbtree=0 / crf=18.0 / qcomp=0.60 / qpmin=0 / qpmax=69 / qpstep=4 / ip_ratio=1.40 / pb_ratio=1.30 / aq=1:0.90
Язык                                     : English
Default                                  : Да
Forced                                   : Нет
DURATION                                 : 01:58:36.884000000
NUMBER_OF_FRAMES                         : 426586
NUMBER_OF_BYTES                          : 7488721032
_STATISTICS_WRITING_APP                  : mkvmerge v7.0.0 ('Where We Going') 64bit built on Jun  9 2014 15:16:27
_STATISTICS_WRITING_DATE_UTC             : 2014-07-10 14:58:23
_STATISTICS_TAGS                         : BPS DURATION NUMBER_OF_FRAMES NUMBER_OF_BYTES
Аудио #1
Идентификатор                            : 2
Формат                                   : AC-3
Формат/Информация                        : Audio Coding 3
Расширение режима                        : CM (complete main)
Параметр Endianness формата              : Big
Идентификатор кодека                     : A_AC3
Продолжительность                        : 1 ч. 58 м.
Вид битрейта                             : Постоянный
Битрейт                                  : 640 Кбит/сек
Каналы                                   : 6 каналов
Расположение каналов                     : Front: L C R, Side: L R, LFE
Частота                                  : 48,0 КГц
Битовая глубина                          : 16 бит
Метод сжатия                             : С потерями
Размер потока                            : 543 Мбайт (7%)
Заголовок                                : Dub
Язык                                     : Russian
Default                                  : Да
Forced                                   : Нет
Аудио #2
Идентификатор                            : 3
Формат                                   : AC-3
Формат/Информация                        : Audio Coding 3
Расширение режима                        : CM (complete main)
Параметр Endianness формата              : Big
Идентификатор кодека                     : A_AC3
Продолжительность                        : 1 ч. 58 м.
Вид битрейта                             : Постоянный
Битрейт                                  : 640 Кбит/сек
Каналы                                   : 6 каналов
Расположение каналов                     : Front: L C R, Side: L R, LFE
Частота                                  : 48,0 КГц
Битовая глубина                          : 16 бит
Метод сжатия                             : С потерями
Размер потока                            : 543 Мбайт (7%)
Заголовок                                : Original
Язык                                     : English
Default                                  : Нет
Forced                                   : Нет
Текст #1
Идентификатор                            : 4
Формат                                   : UTF-8
Идентификатор кодека                     : S_TEXT/UTF8
Идентификатор кодека/Информация          : UTF-8 Plain Text
Заголовок                                : Forced
Язык                                     : Russian
Default                                  : Да
Forced                                   : Нет
Текст #2
Идентификатор                            : 5
Формат                                   : UTF-8
Идентификатор кодека                     : S_TEXT/UTF8
Идентификатор кодека/Информация          : UTF-8 Plain Text
Заголовок                                : Full
Язык                                     : Russian
Default                                  : Нет
Forced                                   : Нет
Текст #3
Идентификатор                            : 6
Формат                                   : UTF-8
Идентификатор кодека                     : S_TEXT/UTF8
Идентификатор кодека/Информация          : UTF-8 Plain Text
Заголовок                                : Full
Язык                                     : English
Default                                  : Нет
Forced                                   : Нет
Меню
00:00:00.000                             : en:00:00:00.000
00:05:00.000                             : en:00:05:00.000
00:10:00.000                             : en:00:10:00.000
00:15:00.000                             : en:00:15:00.000
00:20:00.000                             : en:00:20:00.000
00:25:00.000                             : en:00:25:00.000
00:30:00.000                             : en:00:30:00.000
00:35:00.000                             : en:00:35:00.000
00:40:00.000                             : en:00:40:00.000
00:45:00.000                             : en:00:45:00.000
00:50:00.000                             : en:00:50:00.000
00:55:00.000                             : en:00:55:00.000
01:00:00.000                             : en:01:00:00.000
01:05:00.000                             : en:01:05:00.000
01:10:00.000                             : en:01:10:00.000
01:15:00.000                             : en:01:15:00.000
01:20:00.000                             : en:01:20:00.000
01:25:00.000                             : en:01:25:00.000
01:30:00.000                             : en:01:30:00.000
01:35:00.000                             : en:01:35:00.000
01:40:00.000                             : en:01:40:00.000
01:45:00.000                             : en:01:45:00.000
01:50:00.000                             : en:01:50:00.000
01:55:00.000                             : en:01:55:00.000

Превосходство Борна

Превосходство Борна / The Bourne Supremacy- Год выпуска: 2004
Жанр: Боевик, Триллер, Детектив
Производство: США, Германия
Описание фильма:
Суперагент ЦРУ Джейсон Борн вновь оказывается подставленным и вынужден помимо возложенной на него задачи государственного значения спасать себя, а заодно и других небезразличных ему людей.
В процессе выполнения миссии судьба заносит Борна в Россию, где его ждет множество характерных для страны, но непривычных западному человеку сюрпризов.
Режиссер: Пол Гринграсс
Актеры: Мэтт Дэймон, Карл Урбан, Брайан Кокс, Джоан Аллен, Джулия Стайлз, Франка Потенте, Гэбриел Манн, Мартон Чокаш, Том Гэллоп, Карел Роден
Продолжительность: 01:48:31
Качество видео: BDRip
Перевод: Дублированный
Язык субтитров: Rus (полные), Eng (полные)
Вид субтитров: Вшитые

Видеокодек: MPEG-4 AVC/H.264
Битрейт видео: ~11900 kb/s
Размер кадра: 1920*816
Аудио 1 Русский: AC3 5.1, 640 kb/s
Аудио 2 Английский: AC3 5.1, 640 kb/s
Сэмпл: Ссылка

MI

Общее
Уникальный идентификатор                 : 172922316368532218581301003781086485535 (0x8217A0705FD2ECB6ADEAA4DDA5E99C1F)
Полное имя                               : F:Джейсон Борн 1080p 60fpsБорн 2 1080p 60fps.mkv
Формат                                   : Matroska
Версия формата                           : Version 4 / Version 2
Размер файла                             : 10,2 Гбайт
Продолжительность                        : 1 ч. 48 м.
Общий поток                              : 13,4 Мбит/сек
Дата кодирования                         : UTC 2014-07-09 10:54:36
Программа кодирования                    : mkvmerge v7.0.0 ('Where We Going') 64bit built on Jun  9 2014 15:16:27
Библиотека кодирования                   : libebml v1.3.0 + libmatroska v1.4.1
DURATION                                 : 01:40:48.125000000
NUMBER_OF_FRAMES                         : 948
NUMBER_OF_BYTES                          : 29449
_STATISTICS_WRITING_APP                  : mkvmerge v7.0.0 ('Where We Going') 64bit built on Jun  9 2014 15:16:27
_STATISTICS_WRITING_DATE_UTC             : 2014-07-09 10:54:36
_STATISTICS_TAGS                         : BPS DURATION NUMBER_OF_FRAMES NUMBER_OF_BYTES
Видео
Идентификатор                            : 1
Формат                                   : AVC
Формат/Информация                        : Advanced Video Codec
Профиль формата                          : High@L4.1
Параметр CABAC формата                   : Да
Параметр ReFrames формата                : 4 кадра
Идентификатор кодека                     : V_MPEG4/ISO/AVC
Продолжительность                        : 1 ч. 48 м.
Битрейт                                  : 11,9 Мбит/сек
Ширина                                   : 1920 пикселей
Высота                                   : 816 пикселей
Соотношение сторон                       : 2,35:1
Режим частоты кадров                     : Постоянный
Частота кадров                           : 59,880 кадров/сек
Частота кадров в оригинале               : 59,940 кадров/сек
Цветовое пространство                    : YUV
Субдискретизация насыщенности            : 4:2:0
Битовая глубина                          : 8 бит
Тип развёртки                            : Прогрессивная
Бит/(Пиксели*Кадры)                      : 0.126
Размер потока                            : 8,99 Гбайт (88%)
Библиотека кодирования                   : x264 core 130 r2273 b3065e6
Настройки программы                      : cabac=1 / ref=4 / deblock=1:-1:-1 / analyse=0x3:0 / me=umh / subme=9 / psy=1 / psy_rd=1.00:0.10 / mixed_ref=1 / me_range=24 / chroma_me=0 / trellis=1 / 8x8dct=1 / cqm=0 / deadzone=21,11 / fast_pskip=0 / chroma_qp_offset=-3 / threads=12 / lookahead_threads=1 / sliced_threads=0 / nr=0 / decimate=0 / interlaced=0 / bluray_compat=0 / constrained_intra=0 / bframes=5 / b_pyramid=2 / b_adapt=2 / b_bias=0 / direct=1 / weightb=1 / open_gop=0 / weightp=2 / keyint=599 / keyint_min=59 / scenecut=40 / intra_refresh=0 / rc=crf / mbtree=0 / crf=18.0 / qcomp=0.60 / qpmin=0 / qpmax=69 / qpstep=4 / ip_ratio=1.40 / pb_ratio=1.30 / aq=1:0.90
Язык                                     : English
Default                                  : Да
Forced                                   : Нет
DURATION                                 : 01:48:31.395000000
NUMBER_OF_FRAMES                         : 390293
NUMBER_OF_BYTES                          : 9861344629
_STATISTICS_WRITING_APP                  : mkvmerge v7.0.0 ('Where We Going') 64bit built on Jun  9 2014 15:16:27
_STATISTICS_WRITING_DATE_UTC             : 2014-07-09 10:54:36
_STATISTICS_TAGS                         : BPS DURATION NUMBER_OF_FRAMES NUMBER_OF_BYTES
Аудио #1
Идентификатор                            : 2
Формат                                   : AC-3
Формат/Информация                        : Audio Coding 3
Расширение режима                        : CM (complete main)
Параметр Endianness формата              : Big
Идентификатор кодека                     : A_AC3
Продолжительность                        : 1 ч. 48 м.
Вид битрейта                             : Постоянный
Битрейт                                  : 640 Кбит/сек
Каналы                                   : 6 каналов
Расположение каналов                     : Front: L C R, Side: L R, LFE
Частота                                  : 48,0 КГц
Битовая глубина                          : 16 бит
Метод сжатия                             : С потерями
Размер потока                            : 497 Мбайт (5%)
Заголовок                                : Dub
Язык                                     : Russian
Default                                  : Да
Forced                                   : Нет
Аудио #2
Идентификатор                            : 3
Формат                                   : AC-3
Формат/Информация                        : Audio Coding 3
Расширение режима                        : CM (complete main)
Параметр Endianness формата              : Big
Идентификатор кодека                     : A_AC3
Продолжительность                        : 1 ч. 48 м.
Вид битрейта                             : Постоянный
Битрейт                                  : 640 Кбит/сек
Каналы                                   : 6 каналов
Расположение каналов                     : Front: L C R, Side: L R, LFE
Частота                                  : 48,0 КГц
Битовая глубина                          : 16 бит
Метод сжатия                             : С потерями
Размер потока                            : 497 Мбайт (5%)
Заголовок                                : Original
Язык                                     : English
Default                                  : Нет
Forced                                   : Нет
Текст #1
Идентификатор                            : 4
Формат                                   : UTF-8
Идентификатор кодека                     : S_TEXT/UTF8
Идентификатор кодека/Информация          : UTF-8 Plain Text
Заголовок                                : Full
Язык                                     : Russian
Default                                  : Нет
Forced                                   : Нет
Текст #2
Идентификатор                            : 5
Формат                                   : UTF-8
Идентификатор кодека                     : S_TEXT/UTF8
Идентификатор кодека/Информация          : UTF-8 Plain Text
Заголовок                                : Full
Язык                                     : English
Default                                  : Нет
Forced                                   : Нет
Меню
00:00:00.000                             : :Chapter 01
00:04:31.771                             : :Chapter 02
00:09:45.793                             : :Chapter 03
00:15:24.340                             : :Chapter 04
00:22:02.821                             : :Chapter 05
00:23:35.622                             : :Chapter 06
00:29:14.043                             : :Chapter 07
00:35:14.320                             : :Chapter 08
00:38:06.242                             : :Chapter 09
00:44:58.737                             : :Chapter 10
00:48:01.295                             : :Chapter 11
00:52:52.419                             : :Chapter 12
00:55:27.032                             : :Chapter 13
01:01:02.784                             : :Chapter 14
01:02:40.298                             : :Chapter 15
01:06:52.550                             : :Chapter 16
01:13:54.138                             : :Chapter 17
01:18:13.855                             : :Chapter 18
01:24:53.046                             : :Chapter 19
01:27:43.383                             : :Chapter 20
01:33:06.872                             : :Chapter 21
01:34:51.560                             : :Chapter 22
01:40:15.342                             : :Chapter 23
01:42:01.031                             : :Chapter 24
01:48:25.665                             : :Chapter 25

Ультиматум Борна

Ультиматум Борна / The Bourne Ultimatum- Год выпуска: 2007
Жанр: Боевик, Триллер, Детектив
Производство: США, Германия
Описание фильма:
Он хотел одного — исчезнуть. Вместо этого за Борном теперь охотятся люди, которые сделали его таким, какой он есть. Он потерял память и человека, которого он любил. Но его не удается сдержать даже новому поколению профессиональных убийц. У него только одна цель: вернуться к началу и узнать кем он был, Джейсон Борн.
Он мечется от Москвы к Парижу, через Мадрид и Лондон в Танжер и Нью-Йорк, пытаясь раскрыть последние загадки своего прошлого, в то время, как правительственные агенты и Интерпол пытаются помешать ему восстановить всю картину до конца.
Режиссер: Пол Гринграсс
Актеры: Мэтт Дэймон, Джулия Стайлз, Дэвид Стрэтэйрн, Джоан Аллен, Пэдди Консидайн, Эдгар Рамирес, Альберт Финни, Скотт Гленн, Том Гэллоп, Кори Джонсон
Продолжительность: 01:55:19
Качество видео: BDRip
Перевод: Дублированный
Язык субтитров: Rus (полные), Eng (полные)
Вид субтитров: Вшитые

Видеокодек: MPEG-4 AVC/H.264
Битрейт видео: ~11000 kb/s
Размер кадра: 1920*800
Аудио 1 Русский: AC3 5.1, 640 kb/s
Аудио 2 Английский: AC3 5.1, 640 kb/s
Сэмпл: Ссылка

MI

Общее
Уникальный идентификатор                 : 238815051368320027426869355807674022917 (0xB3AA1B19A521BAF3B7A8894ACB1D3C05)
Полное имя                               : F:Джейсон Борн 1080p 60fpsБорн 3 1080p 60fps.mkv
Формат                                   : Matroska
Версия формата                           : Version 4 / Version 2
Размер файла                             : 10,1 Гбайт
Продолжительность                        : 1 ч. 55 м.
Общий поток                              : 12,5 Мбит/сек
Дата кодирования                         : UTC 2014-07-09 11:00:55
Программа кодирования                    : mkvmerge v7.0.0 ('Where We Going') 64bit built on Jun  9 2014 15:16:27
Библиотека кодирования                   : libebml v1.3.0 + libmatroska v1.4.1
_STATISTICS_WRITING_APP                  : mkvmerge v7.0.0 ('Where We Going') 64bit built on Jun  9 2014 15:16:27
_STATISTICS_WRITING_DATE_UTC             : 2014-07-09 11:00:55
_STATISTICS_TAGS                         : BPS DURATION NUMBER_OF_FRAMES NUMBER_OF_BYTES
DURATION                                 : 01:45:10.471000000
NUMBER_OF_FRAMES                         : 1054
NUMBER_OF_BYTES                          : 34399
Видео
Идентификатор                            : 1
Формат                                   : AVC
Формат/Информация                        : Advanced Video Codec
Профиль формата                          : High@L4.1
Параметр CABAC формата                   : Да
Параметр ReFrames формата                : 4 кадра
Идентификатор кодека                     : V_MPEG4/ISO/AVC
Продолжительность                        : 1 ч. 55 м.
Битрейт                                  : 11,0 Мбит/сек
Ширина                                   : 1920 пикселей
Высота                                   : 800 пикселей
Соотношение сторон                       : 2,40:1
Режим частоты кадров                     : Постоянный
Частота кадров                           : 59,880 кадров/сек
Частота кадров в оригинале               : 59,940 кадров/сек
Цветовое пространство                    : YUV
Субдискретизация насыщенности            : 4:2:0
Битовая глубина                          : 8 бит
Тип развёртки                            : Прогрессивная
Бит/(Пиксели*Кадры)                      : 0.120
Размер потока                            : 8,86 Гбайт (88%)
Библиотека кодирования                   : x264 core 130 r2273 b3065e6
Настройки программы                      : cabac=1 / ref=4 / deblock=1:-1:-1 / analyse=0x3:0 / me=umh / subme=9 / psy=1 / psy_rd=1.00:0.10 / mixed_ref=1 / me_range=24 / chroma_me=0 / trellis=1 / 8x8dct=1 / cqm=0 / deadzone=21,11 / fast_pskip=0 / chroma_qp_offset=-3 / threads=12 / lookahead_threads=1 / sliced_threads=0 / nr=0 / decimate=0 / interlaced=0 / bluray_compat=0 / constrained_intra=0 / bframes=5 / b_pyramid=2 / b_adapt=2 / b_bias=0 / direct=1 / weightb=1 / open_gop=0 / weightp=2 / keyint=599 / keyint_min=59 / scenecut=40 / intra_refresh=0 / rc=crf / mbtree=0 / crf=18.0 / qcomp=0.60 / qpmin=0 / qpmax=69 / qpstep=4 / ip_ratio=1.40 / pb_ratio=1.30 / aq=1:0.90
Язык                                     : English
Default                                  : Да
Forced                                   : Нет
DURATION                                 : 01:55:19.270000000
NUMBER_OF_FRAMES                         : 414741
NUMBER_OF_BYTES                          : 9723292706
_STATISTICS_WRITING_APP                  : mkvmerge v7.0.0 ('Where We Going') 64bit built on Jun  9 2014 15:16:27
_STATISTICS_WRITING_DATE_UTC             : 2014-07-09 11:00:55
_STATISTICS_TAGS                         : BPS DURATION NUMBER_OF_FRAMES NUMBER_OF_BYTES
Аудио #1
Идентификатор                            : 2
Формат                                   : AC-3
Формат/Информация                        : Audio Coding 3
Расширение режима                        : CM (complete main)
Параметр Endianness формата              : Big
Идентификатор кодека                     : A_AC3
Продолжительность                        : 1 ч. 55 м.
Вид битрейта                             : Постоянный
Битрейт                                  : 640 Кбит/сек
Каналы                                   : 6 каналов
Расположение каналов                     : Front: L C R, Side: L R, LFE
Частота                                  : 48,0 КГц
Битовая глубина                          : 16 бит
Метод сжатия                             : С потерями
Размер потока                            : 528 Мбайт (5%)
Заголовок                                : Dub
Язык                                     : Russian
Default                                  : Да
Forced                                   : Нет
Аудио #2
Идентификатор                            : 3
Формат                                   : AC-3
Формат/Информация                        : Audio Coding 3
Расширение режима                        : CM (complete main)
Параметр Endianness формата              : Big
Идентификатор кодека                     : A_AC3
Продолжительность                        : 1 ч. 55 м.
Вид битрейта                             : Постоянный
Битрейт                                  : 640 Кбит/сек
Каналы                                   : 6 каналов
Расположение каналов                     : Front: L C R, Side: L R, LFE
Частота                                  : 48,0 КГц
Битовая глубина                          : 16 бит
Метод сжатия                             : С потерями
Размер потока                            : 528 Мбайт (5%)
Заголовок                                : Original
Язык                                     : English
Default                                  : Нет
Forced                                   : Нет
Текст #1
Идентификатор                            : 4
Формат                                   : UTF-8
Идентификатор кодека                     : S_TEXT/UTF8
Идентификатор кодека/Информация          : UTF-8 Plain Text
Заголовок                                : Full
Язык                                     : Russian
Default                                  : Нет
Forced                                   : Нет
Текст #2
Идентификатор                            : 5
Формат                                   : UTF-8
Идентификатор кодека                     : S_TEXT/UTF8
Идентификатор кодека/Информация          : UTF-8 Plain Text
Заголовок                                : Full
Язык                                     : English
Default                                  : Нет
Forced                                   : Нет
Меню
00:00:00.000                             : :Chapter 01
00:04:02.241                             : :Chapter 02
00:09:46.126                             : :Chapter 03
00:13:57.211                             : :Chapter 04
00:21:01.843                             : :Chapter 05
00:27:52.045                             : :Chapter 06
00:31:46.863                             : :Chapter 07
00:38:44.447                             : :Chapter 08
00:43:51.753                             : :Chapter 09
00:50:02.916                             : :Chapter 10
00:58:12.780                             : :Chapter 11
01:05:35.764                             : :Chapter 12
01:10:35.898                             : :Chapter 13
01:15:49.586                             : :Chapter 14
01:20:36.957                             : :Chapter 15
01:25:08.269                             : :Chapter 16
01:31:34.779                             : :Chapter 17
01:35:58.292                             : :Chapter 18
01:42:11.833                             : :Chapter 19
01:46:07.359                             : :Chapter 20
01:55:13.655                             : :Chapter 21

Эволюция Борна

Эволюция Борна / The Bourne Legacy- Год выпуска: 2012
Жанр: Боевик, Триллер, Детектив
Производство: США
Описание фильма:
В игре всегда несколько фигур. Одна из них — Джейсон Борн, другая — совершенный агент Аарон Кросс. Их возможности безграничны. Но даже у идеального оружия бывают сбои…
Режиссер: Тони Гилрой
Актеры: Джереми Реннер, Рейчел Вайс, Эдвард Нортон, Стейси Кич, Оскар Айзек, Желько Иванек, Донна Мерфи, Майкл Чернус, Кори Столл, Элизабет Марвел
Продолжительность: 02:15:02
Качество видео: BDRip
Перевод: Дублированный
Язык субтитров: Rus (Форс.), Rus (полные), Eng (полные)
Вид субтитров: Вшитые

Видеокодек: MPEG-4 AVC/H.264
Битрейт видео: ~13500 kb/s
Размер кадра: 1920*800
Аудио 1 Русский: AC3 5.1, 640 kb/s
Аудио 2 Английский: AC3 5.1, 640 kb/s
Сэмпл: Ссылка

MI

Общее
Уникальный идентификатор                 : 183419051419293167812444558439706474431 (0x89FD396EFF9A33E3A043CC98912B37BF)
Полное имя                               : F:Джейсон Борн 1080p 60fpsБорн 4 1080p 60fps.mkv
Формат                                   : Matroska
Версия формата                           : Version 4 / Version 2
Размер файла                             : 14,2 Гбайт
Продолжительность                        : 2 ч. 15 м.
Общий поток                              : 15,1 Мбит/сек
Дата кодирования                         : UTC 2014-07-09 11:06:20
Программа кодирования                    : mkvmerge v7.0.0 ('Where We Going') 64bit built on Jun  9 2014 15:16:27
Библиотека кодирования                   : libebml v1.3.0 + libmatroska v1.4.1
DURATION                                 : 02:02:55.462000000
NUMBER_OF_FRAMES                         : 1460
NUMBER_OF_BYTES                          : 50258
_STATISTICS_WRITING_APP                  : mkvmerge v7.0.0 ('Where We Going') 64bit built on Jun  9 2014 15:16:27
_STATISTICS_WRITING_DATE_UTC             : 2014-07-09 11:06:20
_STATISTICS_TAGS                         : BPS DURATION NUMBER_OF_FRAMES NUMBER_OF_BYTES
Видео
Идентификатор                            : 1
Формат                                   : AVC
Формат/Информация                        : Advanced Video Codec
Профиль формата                          : High@L4.1
Параметр CABAC формата                   : Да
Параметр ReFrames формата                : 4 кадра
Идентификатор кодека                     : V_MPEG4/ISO/AVC
Продолжительность                        : 2 ч. 15 м.
Битрейт                                  : 13,5 Мбит/сек
Ширина                                   : 1920 пикселей
Высота                                   : 800 пикселей
Соотношение сторон                       : 2,40:1
Режим частоты кадров                     : Постоянный
Частота кадров                           : 59,880 кадров/сек
Частота кадров в оригинале               : 59,940 кадров/сек
Цветовое пространство                    : YUV
Субдискретизация насыщенности            : 4:2:0
Битовая глубина                          : 8 бит
Тип развёртки                            : Прогрессивная
Бит/(Пиксели*Кадры)                      : 0.147
Размер потока                            : 12,7 Гбайт (90%)
Библиотека кодирования                   : x264 core 130 r2273 b3065e6
Настройки программы                      : cabac=1 / ref=4 / deblock=1:-1:-1 / analyse=0x3:0 / me=umh / subme=9 / psy=1 / psy_rd=1.00:0.10 / mixed_ref=1 / me_range=24 / chroma_me=0 / trellis=1 / 8x8dct=1 / cqm=0 / deadzone=21,11 / fast_pskip=0 / chroma_qp_offset=-3 / threads=12 / lookahead_threads=1 / sliced_threads=0 / nr=0 / decimate=0 / interlaced=0 / bluray_compat=0 / constrained_intra=0 / bframes=5 / b_pyramid=2 / b_adapt=2 / b_bias=0 / direct=1 / weightb=1 / open_gop=0 / weightp=2 / keyint=599 / keyint_min=59 / scenecut=40 / intra_refresh=0 / rc=crf / mbtree=0 / crf=18.0 / qcomp=0.60 / qpmin=0 / qpmax=69 / qpstep=4 / ip_ratio=1.40 / pb_ratio=1.30 / aq=1:0.90
Язык                                     : English
Default                                  : Да
Forced                                   : Нет
DURATION                                 : 02:15:02.236000000
NUMBER_OF_FRAMES                         : 485648
NUMBER_OF_BYTES                          : 13955592644
_STATISTICS_WRITING_APP                  : mkvmerge v7.0.0 ('Where We Going') 64bit built on Jun  9 2014 15:16:27
_STATISTICS_WRITING_DATE_UTC             : 2014-07-09 11:06:20
_STATISTICS_TAGS                         : BPS DURATION NUMBER_OF_FRAMES NUMBER_OF_BYTES
Аудио #1
Идентификатор                            : 2
Формат                                   : AC-3
Формат/Информация                        : Audio Coding 3
Расширение режима                        : CM (complete main)
Параметр Endianness формата              : Big
Идентификатор кодека                     : A_AC3
Продолжительность                        : 2 ч. 15 м.
Вид битрейта                             : Постоянный
Битрейт                                  : 640 Кбит/сек
Каналы                                   : 6 каналов
Расположение каналов                     : Front: L C R, Side: L R, LFE
Частота                                  : 48,0 КГц
Битовая глубина                          : 16 бит
Метод сжатия                             : С потерями
Размер потока                            : 618 Мбайт (4%)
Заголовок                                : Dub
Язык                                     : Russian
Default                                  : Да
Forced                                   : Нет
Аудио #2
Идентификатор                            : 3
Формат                                   : AC-3
Формат/Информация                        : Audio Coding 3
Расширение режима                        : CM (complete main)
Параметр Endianness формата              : Big
Идентификатор кодека                     : A_AC3
Продолжительность                        : 2 ч. 15 м.
Вид битрейта                             : Постоянный
Битрейт                                  : 640 Кбит/сек
Каналы                                   : 6 каналов
Расположение каналов                     : Front: L C R, Side: L R, LFE
Частота                                  : 48,0 КГц
Битовая глубина                          : 16 бит
Метод сжатия                             : С потерями
Размер потока                            : 618 Мбайт (4%)
Заголовок                                : Original
Язык                                     : English
Default                                  : Нет
Forced                                   : Нет
Текст #1
Идентификатор                            : 4
Формат                                   : UTF-8
Идентификатор кодека                     : S_TEXT/UTF8
Идентификатор кодека/Информация          : UTF-8 Plain Text
Заголовок                                : Forced
Язык                                     : Russian
Default                                  : Да
Forced                                   : Нет
Текст #2
Идентификатор                            : 5
Формат                                   : UTF-8
Идентификатор кодека                     : S_TEXT/UTF8
Идентификатор кодека/Информация          : UTF-8 Plain Text
Заголовок                                : Full
Язык                                     : Russian
Default                                  : Нет
Forced                                   : Нет
Текст #3
Идентификатор                            : 6
Формат                                   : UTF-8
Идентификатор кодека                     : S_TEXT/UTF8
Идентификатор кодека/Информация          : UTF-8 Plain Text
Заголовок                                : Full
Язык                                     : English
Default                                  : Нет
Forced                                   : Нет
Меню
00:00:00.000                             : en:
00:08:43.690                             : en:
00:14:26.616                             : en:
00:19:57.488                             : en:
00:27:53.297                             : en:
00:34:18.265                             : en:
00:42:52.403                             : en:
00:47:57.374                             : en:
00:53:56.066                             : en:
01:00:29.167                             : en:
01:07:36.636                             : en:
01:14:36.972                             : en:
01:22:39.204                             : en:
01:28:37.687                             : en:
01:36:39.043                             : en:
01:41:05.685                             : en:
01:45:07.968                             : en:
01:52:15.520                             : en:
02:00:07.283                             : en:
02:05:06.416                             : en:
Скриншоты:
[Профиль] [ЛС]
Показать сообщения:    

Текущее время: Сегодня 14:08

Часовой пояс: GMT



Вы не можете начинать темы
Вы не можете отвечать на сообщения
Вы не можете редактировать свои сообщения
Вы не можете удалять свои сообщения
Вы не можете голосовать в опросах
Вы не можете прикреплять файлы к сообщениям
Вы не можете скачивать файлы