Джейн берет ружье / Jane Got a Gun (2015) BDRemux 1080p от ExKinoRay | Лицензия

 
Автор Сообщение

достали все ®

Пол:

Стаж: 1 год 8 месяцев

Сообщений: 6581



Награды: 12 (Подробнее)

Mega Seeder 5 (Количество: 1) За внесенный вклад в развитие сайта (Количество: 1) Mega Seeder 4 (Количество: 1)
Торрент-статистика

Создавать темы 22-Апр-2016 06:02

[Цитировать]

Информация о фильме
Название: Джейн берет ружье
Оригинальное название: Jane Got a Gun
Год выхода: 2015
Жанр: Боевик, драма, вестерн
Режиссер: Гэвин О’Коннор
В ролях: Натали Портман, Джоэл Эдгертон, Эван МакГрегор, Родриго Санторо, Ноа Эммерик, Бойд Холбрук, Алекс Манетт, Тодд Стэшвик, Джеймс Барнетт, Сэм Куинн
О фильме:
Головорезы МакКэна преследуют попытавшегося отбиться от банды Хэма. Изрешеченный пулями, он укрывается на ранчо своей красавицы-жены Джейн. Ей приходится обратиться за защитой к тому, кого она хотела бы видеть меньше всего, — к своему бывшему любовнику. Джейн нужно забыть прошлое, совладать с чувствами и стать сильной и бескомпромиссной, чтобы спасти семью от расправы банды наемников.

Страна: США
Студия: 1821 Pictures, Boies/Schiller Film Group, Handsomecharlie Films
Продолжительность: 01:37:59
Перевод: Дублированный | Лицензия
Файл
Кодек: MPEG-4
Качество: BDRemux 1080p
Видео: 1920x1080, 23.0 Kbps, 23.976 fps
Звук:
Аудио #1: 48.0 Khz, AC3, 5.1, 448 Kbps | Дублированный, Лицензия | RUS
Аудио #2: 48.0 Khz, DTS-HD MA, 5.1, 3492 Kbps | Оригинал | ENG
Субтитры: Английские
Релиз от:
Автор релиза:
Примечание: Без рекламы.

MI

Общее
Уникальный идентификатор : 202334640985058071328413527516425225536 (0x98383C00B87D463B98F158A029E00540)
Полное имя : F:VideoJane.Got.a.Gun..2015..BDREMUX.1080p.ExKinoRay.mkv
Формат : Matroska
Версия формата : Version 4 / Version 2
Размер файла : 18,4 Гбайт
Продолжительность : 1 ч. 37 м.
Режим общего битрейта : Переменный
Общий поток : 26,9 Мбит/сек
Название фильма : Jane.Got.a.Gun..2015..BDREMUX.1080p.ExKinoRay
Дата кодирования : UTC 2016-04-22 03:23:09
Программа кодирования : mkvmerge v8.3.0 ('Over the Horizon') 64bit
Библиотека кодирования : libebml v1.3.1 + libmatroska v1.4.2
Видео
Идентификатор : 1
Формат : AVC
Формат/Информация : Advanced Video Codec
Профиль формата : High@L4.1
Параметр CABAC формата : Да
Параметр ReFrames формата : 4 кадра
Параметр GOP формата : M=3, N=24
Идентификатор кодека : V_MPEG4/ISO/AVC
Продолжительность : 1 ч. 37 м.
Вид битрейта : Переменный
Битрейт : 23,0 Мбит/сек
Максимальный битрейт : 35,0 Мбит/сек
Ширина : 1920 пикселей
Высота : 1080 пикселей
Соотношение сторон : 16:9
Режим частоты кадров : Постоянный
Частота кадров : 23,976 (24000/1001) кадра/сек
Стандарт вещания : NTSC
Цветовое пространство : YUV
Субдискретизация насыщенности : 4:2:0
Битовая глубина : 8 бит
Тип развёртки : Прогрессивная
Бит/(Пиксели*Кадры) : 0.462
Размер потока : 15,7 Гбайт (85%)
Язык : English
Default : Нет
Forced : Нет
Цветовой диапазон : Limited
Основные цвета : BT.709
Характеристики трансфера : BT.709
Коэффициенты матрицы : BT.709
Аудио #1
Идентификатор : 2
Формат : AC-3
Формат/Информация : Audio Coding 3
Расширение режима : CM (complete main)
Параметр Endianness формата : Big
Идентификатор кодека : A_AC3
Продолжительность : 1 ч. 37 м.
Вид битрейта : Постоянный
Битрейт : 448 Кбит/сек
Каналы : 6 каналов
Расположение каналов : Front: L C R, Side: L R, LFE
Частота : 48,0 КГц
Частота кадров : 31,250 кадров/сек (1536 spf)
Метод сжатия : С потерями
Размер потока : 314 Мбайт (2%)
Заголовок : DUB [License]
Язык : Russian
Default : Да
Forced : Нет
Аудио #2
Идентификатор : 3
Формат : DTS
Формат/Информация : Digital Theater Systems
Профиль формата : MA / Core
Режим : 16
Параметр Endianness формата : Big
Идентификатор кодека : A_DTS
Продолжительность : 1 ч. 37 м.
Вид битрейта : Переменный / Постоянный
Битрейт : 3492 Кбит/сек / 1509 Кбит/сек
Каналы : 6 каналов
Расположение каналов : Front: L C R, Side: L R, LFE
Частота : 48,0 КГц
Частота кадров : 93,750 кадра/сек (512 spf)
Битовая глубина : 24 бит
Метод сжатия : Без потерь / Lossy
Размер потока : 2,39 Гбайт (13%)
Язык : English
Default : Нет
Forced : Нет
Текст
Идентификатор : 4
Формат : UTF-8
Идентификатор кодека : S_TEXT/UTF8
Идентификатор кодека/Информация : UTF-8 Plain Text
Продолжительность : 1 ч. 25 м.
Битрейт : 36 бит/сек
Count of elements : 836
Размер потока : 23,0 Кбайт (0%)
Язык : English
Default : Нет
Forced : Нет
Меню
00:00:00.000 : en:Chapter 01
00:04:08.414 : en:Chapter 02
00:09:51.257 : en:Chapter 03
00:15:45.903 : en:Chapter 04
00:23:52.264 : en:Chapter 05
00:30:41.297 : en:Chapter 06
00:35:32.797 : en:Chapter 07
00:41:13.679 : en:Chapter 08
00:47:20.254 : en:Chapter 09
00:53:17.360 : en:Chapter 10
01:00:58.821 : en:Chapter 11
01:09:51.729 : en:Chapter 12
01:17:42.574 : en:Chapter 13
01:23:30.213 : en:Chapter 14
01:27:12.018 : en:Chapter 15
01:31:18.806 : en:Chapter 16

Скриншоты

[Профиль] [ЛС]
Кто просматривает тему:

Форум Тема Автор Размер
Документальные HD 20 000 дней на Земле / 20,000 Days on Earth (Ян Форсайт & Джейн Поллард / Iain Forsyth & Jane Pollard) [2014, Великобритания, Документальный, музыкальный, BDRip 1080p] + Sub Rus + Original Eng TorrentFilm 7.45 GB
Документальные HD 20 000 дней на Земле / 20,000 Days on Earth (Ян Форсайт & Джейн Поллард / Iain Forsyth & Jane Pollard) [2014, Документальный, драма, музыка, BDRip 1080p] TorrentFilm 7.25 GB
Фильмы 2014 года 20 000 дней на Земле / 20,000 Days on Earth (Ян Форсис, Джейн Поллард) [Документальный, драма, музыка, 2014] BDRip | L1 BOSS 1.46 GB
Фильмы (HD Rips | 720p, 1080p) Аферисты: Дик и Джейн развлекаются / Fun with Dick and Jane (2005) Web-DL 720p | D sergej644 2.92 GB
Фильмы 2010 года Богги Крик / Болотный ручей / Boggy Creek (Брайан Т. Джейнс / Brian T. Jaynes) [2010, США, Ужасы, DVDRip] VO (Васька Куролесов) reversefile 743 MB
Зарубежные сериалы Девственница Джейн / Jane the Virgin [01-02 из 13] (2014) WEBDLRip-AVC - Interhit Белочка 1.27 GB
Зарубежные сериалы Девственница Джейн / Jane the Virgin [01-03 из 13] (2014) WEBDLRip-AVC - Interhit Белочка 1.91 GB
Зарубежные сериалы Девственница Джейн / Jane the Virgin [01-07 из 13] (2014) WEBDLRip-AVC | Interhit Белочка 4.45 GB
Показать сообщения:    

Текущее время: Сегодня 06:06

Часовой пояс: GMT



Вы не можете начинать темы
Вы не можете отвечать на сообщения
Вы не можете редактировать свои сообщения
Вы не можете удалять свои сообщения
Вы не можете голосовать в опросах
Вы не можете прикреплять файлы к сообщениям
Вы не можете скачивать файлы