Джейн берет ружье / Jane Got a Gun (2015) BDRemux 1080p | L2

 
Автор Сообщение

Russian Mafia ®

Пол:

Стаж: 1 год 8 месяцев

Сообщений: 4247



Награды: 10 (Подробнее)

Top Releaser 5 (Количество: 1) Mega Seeder 4 (Количество: 1) Top Releaser 3 (Количество: 1)
Торрент-статистика

Создавать темы 07-Апр-2016 07:02

[Цитировать]

Информация о фильме
Название: Джейн берет ружье
Оригинальное название: Jane Got a Gun
Год выхода: 2015
Жанр: боевик, драма, вестерн
Режиссер: Гэвин О’Коннор
В ролях: Натали Портман, Джоэл Эдгертон, Эван МакГрегор, Родриго Санторо, Ноа Эммерик, Бойд Холбрук, Алекс Манетт, Тодд Стэшвик, Джеймс Барнетт, Сэм Куинн
О фильме:
Головорезы МакКэна преследуют попытавшегося отбиться от банды Хэма. Изрешеченный пулями, он укрывается на ранчо своей красавицы-жены Джейн. Ей приходится обратиться за защитой к тому, кого она хотела бы видеть меньше всего, — к своему бывшему любовнику. Джейн нужно забыть прошлое, совладать с чувствами и стать сильной и бескомпромиссной, чтобы спасти семью от расправы банды наемников.

Страна: США
Студия: 1821 Pictures, Boies / Schiller Film Group, Handsomecharlie Films
Продолжительность: 01:37:59
Перевод: Любительский двухголосый (закадровый)
Файл
Кодек: MPEG-4
Качество: BDRemux 1080p
Видео: 1920x1080, 23.0 Mbit/s, 23.976 fps
Звук:
Аудио #1: 48.0 Khz, AC3, 2.0, 192 Kbps | Любительский двухголосый (закадровый), Parovoz Production | RUS
Аудио #2: 48.0 Khz, DTS-HD MA, 5.1, 3492 Kbps | Оригинал | ENG
Релиз от:
Примечание: Без рекламы.

Media-info

Формат : Matroska
Версия формата : Version 4 / Version 2
Размер файла : 18,3 Гбайт
Продолжительность : 1 ч. 37 м.
Режим общего битрейта : Переменный
Общий поток : 26,7 Мбит/сек
Название фильма : Jane.Got.a.Gun.2015.BDREMUX.1080p
Дата кодирования : UTC 2016-04-06 14:31:49
Программа кодирования : mkvmerge v8.3.0 ('Over the Horizon') 64bit
Библиотека кодирования : libebml v1.3.1 + libmatroska v1.4.2
Обложка : Yes
Attachments : cover_land.jpg / small_cover.jpg / small_cover_land.jpg / cover.jpg
Видео
Идентификатор : 1
Формат : AVC
Формат/Информация : Advanced Video Codec
Профиль формата : High@L4.1
Параметр CABAC формата : Да
Параметр ReFrames формата : 4 кадра
Параметр GOP формата : M=3, N=24
Идентификатор кодека : V_MPEG4/ISO/AVC
Продолжительность : 1 ч. 37 м.
Вид битрейта : Переменный
Битрейт : 23,0 Мбит/сек
Максимальный битрейт : 35,0 Мбит/сек
Ширина : 1920 пикселей
Высота : 1080 пикселей
Соотношение сторон : 16:9
Режим частоты кадров : Постоянный
Частота кадров : 23,976 (24000/1001) кадра/сек
Стандарт вещания : NTSC
Цветовое пространство : YUV
Субдискретизация насыщенности : 4:2:0
Битовая глубина : 8 бит
Тип развёртки : Прогрессивная
Бит/(Пиксели*Кадры) : 0.462
Размер потока : 15,7 Гбайт (86%)
Язык : English
Default : Нет
Forced : Нет
Цветовой диапазон : Limited
Основные цвета : BT.709
Характеристики трансфера : BT.709
Коэффициенты матрицы : BT.709
Аудио #1
Идентификатор : 2
Формат : AC-3
Формат/Информация : Audio Coding 3
Расширение режима : CM (complete main)
Параметр Endianness формата : Big
Идентификатор кодека : A_AC3
Продолжительность : 1 ч. 37 м.
Вид битрейта : Постоянный
Битрейт : 192 Кбит/сек
Каналы : 2 канала
Расположение каналов : Front: L R
Частота : 48,0 КГц
Частота кадров : 31,250 кадров/сек (1536 spf)
Метод сжатия : С потерями
Размер потока : 135 Мбайт (1%)
Язык : Russian
Default : Да
Forced : Нет
Аудио #2
Идентификатор : 3
Формат : DTS
Формат/Информация : Digital Theater Systems
Профиль формата : MA / Core
Режим : 16
Параметр Endianness формата : Big
Идентификатор кодека : A_DTS
Продолжительность : 1 ч. 37 м.
Вид битрейта : Переменный / Постоянный
Битрейт : 3492 Кбит/сек / 1509 Кбит/сек
Каналы : 6 каналов
Расположение каналов : Front: L C R, Side: L R, LFE
Частота : 48,0 КГц
Частота кадров : 93,750 кадра/сек (512 spf)
Битовая глубина : 24 бит
Метод сжатия : Без потерь / Lossy
Размер потока : 2,39 Гбайт (13%)
Язык : English
Default : Нет
Forced : Нет
Текст
Идентификатор : 4
Формат : PGS
Режим смешивания : zlib
Идентификатор кодека : S_HDMV/PGS
Идентификатор кодека/Информация : Picture based subtitle format used on BDs/HD-DVDs
Продолжительность : 1 ч. 37 м.
Битрейт : 10,1 Кбит/сек
Count of elements : 2364
Размер потока : 7,04 Мбайт (0%)
Заголовок : English-PGS
Язык : English
Default : Нет
Forced : Нет
Меню
00:00:00.000 : en:Chapter 01
00:04:08.414 : en:Chapter 02
00:09:51.257 : en:Chapter 03
00:15:45.903 : en:Chapter 04
00:23:52.264 : en:Chapter 05
00:30:41.297 : en:Chapter 06
00:35:32.797 : en:Chapter 07
00:41:13.679 : en:Chapter 08
00:47:20.254 : en:Chapter 09
00:53:17.360 : en:Chapter 10
01:00:58.821 : en:Chapter 11
01:09:51.729 : en:Chapter 12
01:17:42.574 : en:Chapter 13
01:23:30.213 : en:Chapter 14
01:27:12.018 : en:Chapter 15
01:31:18.806 : en:Chapter 16

Скриншоты

[Профиль] [ЛС]
Кто просматривает тему:

Форум Тема Автор Размер
Документальные HD 20 000 дней на Земле / 20,000 Days on Earth (Ян Форсайт & Джейн Поллард / Iain Forsyth & Jane Pollard) [2014, Великобритания, Документальный, музыкальный, BDRip 1080p] + Sub Rus + Original Eng TorrentFilm 7.45 GB
Документальные HD 20 000 дней на Земле / 20,000 Days on Earth (Ян Форсайт & Джейн Поллард / Iain Forsyth & Jane Pollard) [2014, Документальный, драма, музыка, BDRip 1080p] TorrentFilm 7.25 GB
Фильмы 2014 года 20 000 дней на Земле / 20,000 Days on Earth (Ян Форсис, Джейн Поллард) [Документальный, драма, музыка, 2014] BDRip | L1 BOSS 1.46 GB
Фильмы (HD Rips | 720p, 1080p) Аферисты: Дик и Джейн развлекаются / Fun with Dick and Jane (2005) Web-DL 720p | D sergej644 2.92 GB
Фильмы 2010 года Богги Крик / Болотный ручей / Boggy Creek (Брайан Т. Джейнс / Brian T. Jaynes) [2010, США, Ужасы, DVDRip] VO (Васька Куролесов) reversefile 743 MB
Зарубежные сериалы Девственница Джейн / Jane the Virgin [01-02 из 13] (2014) WEBDLRip-AVC - Interhit Белочка 1.27 GB
Зарубежные сериалы Девственница Джейн / Jane the Virgin [01-03 из 13] (2014) WEBDLRip-AVC - Interhit Белочка 1.91 GB
Зарубежные сериалы Девственница Джейн / Jane the Virgin [01-07 из 13] (2014) WEBDLRip-AVC | Interhit Белочка 4.45 GB
Показать сообщения:    

Текущее время: Сегодня 00:11

Часовой пояс: GMT



Вы не можете начинать темы
Вы не можете отвечать на сообщения
Вы не можете редактировать свои сообщения
Вы не можете удалять свои сообщения
Вы не можете голосовать в опросах
Вы не можете прикреплять файлы к сообщениям
Вы не можете скачивать файлы