Джеймс Бонд 007: Бриллианты навсегда / James Bond: Diamonds Are Forever (1971) BDRip 1080p

 
Автор Сообщение

sergej644 ®

Пол:

Стаж: 4 года 11 месяцев

Сообщений: 6045

Откуда: Soviet Union



Награды: Нет

Торрент-статистика

Создавать темы 31-Окт-2014 17:41

[Цитировать]

--Джеймс Бонд 007: Бриллианты навсегда / James Bond: Diamonds Are Forever (1971) Информация о фильме
Название: Джеймс Бонд 007: Бриллианты навсегда
Оригинальное название: James Bond 007: Diamonds Are Forever
Год выхода: 1971
Страна: Великобритания
Выпущено: Danjaq Productions, Eon Productions Ltd.
Жанр: Боевик, триллер, приключения
Продолжительность: 02:00:08
Перевод: Профессиональный (Дублированный)
Режиссер: Гай Хэмилтон
В ролях: Шон Коннери, Джилл Ст. Джон, Чарльз Грей, Лана Вуд, Джимми Дин, Брюс Кэбот, Пюттер Смит, Брюс Гловер, Норман Бертон, Джозеф Фюрст, Бернард Ли, Дезмонд Льюэлин, Леонард Барр, Лоис Максвелл, Маргарет Лейси, Джо Робинсон, Давид де Кейзер, Лоуренс Нэйсмит, Дэвид Бауэр, Сэмми Дэвис мл., Сид Хэйг, Марк Лоуренс-О фильме: Руководство Секретной Службы Её Величества поручает Джеймсу Бонду, как лучшему из лучших своих агентов, расследовать хищение огромного количества бриллиантов в Южной Африке. Однако выясняется, что похитители не оставляют в живых никого - ни свидетелей, ни мелких сообщников... И постепенно, из тумана бриллиантового сияния, всё чётче проступает зловещая фигура всё того же, что и в прежних фильмах, "заклятого друга" Бонда - международного преступника и авантюриста Блофельда, противостояние которому уже превратилось в едва ли не сам смысл безупречной службы Бонда. Самое страшное на сей раз то, что Блофельд в своих безумных планах о мировом господстве решил более не мелочиться... Он не будет, как раньше, провоцировать на междоусобицу мировые сверхдержавы или разводить какие-то зловредные микробы в пробирках. И бриллианты ему нужны отнюдь не для обогащения - он и так сказочно богат. Конечная цель создания его безразмерного бриллиантового запаса - постройка смертоносного технического чуда, уникального лазера, способного из космоса, сбивая все преграды на своём пути, подвергнуть детонации, если Блофельду это будет угодно, весь мировой ядерный запас! На стороне Блофельда - море денег, холодная жестокость безумца и технические достижения. На стороне Бонда - его всегдашнее обаяние, железная выдержка и технические достижения, хоть и не блофельдовского масштаба, но весьма полезные в нелёгкой и непредсказуемой работе секретного агента. Остаётся догадаться - кто же на этот раз победит? Фильм, помимо захватывающей интриги, примечателен и возвращением Шона Коннери к образу полюбившемуся миллионам зрителей героя. В предыдущем фильме о Бонде его вполне успешно сыграл Джордж Лезенби, но Коннери к тому времени уже стал "заслуженным и народным" агентом 007, и на экранах все хотели видеть именно его...
-Файл
Кодек: x264
Формат: MKV
Качество: BDRip 1080p
Видео: AVC (High@L4.1) 1920x816 (2.35:1), 23.976 fps, 8350 kbps, 0.222 Bits/Pixel
Аудио 1: DD (AC-3) 5.1 ch, 448 kbps (Rus)
Аудио 2: DD (AC-3) 5.1 ch, 448 kbps (Eng)
Субтитры: Русские, Английские--

MI

General
Unique ID : 218426127470995270633786225212707112945 (0xA453578A404392D8A7FD2D787AE107F1)
Format : Matroska
Format version : Version 2
File size : 7.76 GiB
Duration : 2h 0mn
Overall bit rate : 9 250 Kbps
Movie name : Бриллианты навсегда (1971) BDRip (1080p)
Encoded date : UTC 2013-03-02 17:42:32
Writing application : mkvmerge v5.8.0 ('No Sleep / Pillow') built on Sep 2 2012 15:37:04
Writing library : libebml v1.2.3 + libmatroska v1.3.0
Video
ID : 1
Format : AVC
Format/Info : Advanced Video Codec
Format profile : High@L4.1
Format settings, CABAC : Yes
Format settings, ReFrames : 5 frames
Codec ID : V_MPEG4/ISO/AVC
Duration : 2h 0mn
Bit rate : 8 350 Kbps
Width : 1 920 pixels
Height : 816 pixels
Display aspect ratio : 2.35:1
Frame rate mode : Constant
Frame rate : 23.976 fps
Color space : YUV
Chroma subsampling : 4:2:0
Bit depth : 8 bits
Scan type : Progressive
Bits/(Pixel*Frame) : 0.222
Stream size : 6.86 GiB (88%)
Title : Release by Alex260680
Writing library : x264 core 129 r2245 bc13772
Encoding settings : cabac=1 / ref=5 / deblock=1:0:0 / analyse=0x3:0x113 / me=umh / subme=10 / psy=1 / psy_rd=1.00:0.10 / mixed_ref=1 / me_range=32 / chroma_me=1 / trellis=2 / 8x8dct=1 / cqm=0 / deadzone=21,11 / fast_pskip=0 / chroma_qp_offset=-3 / threads=12 / lookahead_threads=2 / sliced_threads=0 / nr=0 / decimate=0 / interlaced=0 / bluray_compat=0 / constrained_intra=0 / bframes=5 / b_pyramid=2 / b_adapt=2 / b_bias=0 / direct=3 / weightb=1 / open_gop=0 / weightp=2 / keyint=240 / keyint_min=23 / scenecut=40 / intra_refresh=0 / rc=2pass / mbtree=0 / bitrate=8350 / ratetol=1.0 / qcomp=0.60 / qpmin=0 / qpmax=69 / qpstep=4 / cplxblur=20.0 / qblur=0.5 / ip_ratio=1.40 / pb_ratio=1.30 / aq=1:0.80
Language : English
Default : Yes
Forced : No
Audio #1
ID : 2
Format : AC-3
Format/Info : Audio Coding 3
Mode extension : CM (complete main)
Format settings, Endianness : Big
Codec ID : A_AC3
Duration : 2h 0mn
Bit rate mode : Constant
Bit rate : 448 Kbps
Channel(s) : 6 channels
Channel positions : Front: L C R, Side: L R, LFE
Sampling rate : 48.0 KHz
Bit depth : 16 bits
Compression mode : Lossy
Stream size : 385 MiB (5%)
Title : DUB
Language : Russian
Default : Yes
Forced : No
Audio #2
ID : 3
Format : AC-3
Format/Info : Audio Coding 3
Mode extension : CM (complete main)
Format settings, Endianness : Big
Codec ID : A_AC3
Duration : 2h 0mn
Bit rate mode : Constant
Bit rate : 448 Kbps
Channel(s) : 6 channels
Channel positions : Front: L C R, Side: L R, LFE
Sampling rate : 48.0 KHz
Bit depth : 16 bits
Compression mode : Lossy
Stream size : 385 MiB (5%)
Title : Original
Language : English
Default : No
Forced : No
Text #1
ID : 4
Format : UTF-8
Codec ID : S_TEXT/UTF8
Codec ID/Info : UTF-8 Plain Text
Language : Russian
Default : No
Forced : No
Text #2
ID : 5
Format : UTF-8
Codec ID : S_TEXT/UTF8
Codec ID/Info : UTF-8 Plain Text
Language : English
Default : No
Forced : No
Menu
00:00:00.000 : en:Chapter1
00:04:56.170 : en:Chapter2
00:07:45.756 : en:Chapter3
00:10:31.464 : en:Chapter4
00:14:43.299 : en:Chapter5
00:17:15.826 : en:Chapter6
00:21:31.456 : en:Chapter7
00:25:37.536 : en:Chapter8
00:29:11.458 : en:Chapter9
00:34:10.882 : en:Chapter10
00:36:51.584 : en:Chapter11
00:39:36.165 : en:Chapter12
00:43:57.593 : en:Chapter13
00:49:59.663 : en:Chapter14
00:51:45.894 : en:Chapter15
00:56:34.057 : en:Chapter16
00:59:17.011 : en:Chapter17
01:03:33.643 : en:Chapter18
01:08:01.285 : en:Chapter19
01:12:56.163 : en:Chapter20
01:18:34.960 : en:Chapter21
01:20:29.574 : en:Chapter22
01:23:11.736 : en:Chapter23
01:30:21.958 : en:Chapter24
01:32:01.641 : en:Chapter25
01:33:06.497 : en:Chapter26
01:36:06.010 : en:Chapter27
01:37:59.373 : en:Chapter28
01:41:39.885 : en:Chapter29
01:47:22.811 : en:Chapter30
01:54:13.972 : en:Chapter31
01:58:34.357 : en:Chapter32
02:00:08.075 : en:Chapter33
--Скриншоты
-
[Профиль] [ЛС]
Кто просматривает тему:

Форум Тема Автор Размер
R.G.TorrentFilm Video 24 часа на Земле / 24 Hours on Earth [Серии 1-2 из 2] (Джеймс Хонейборн / James Honeyborne) [2013 г., Документальный, флора, фауна, SATRip] Dub (Видеофильм ТВ) Один 777 999 MB
BBC BBC: Таинственный мир гормонов / The Fantastical World of Hormones with Professor John Wass (Джеймс Сенди / James Sandy) [2014 г., Документальный, научно-познавательный, исследование, HDTVRip 720p] skorpionN 1.75 GB
History History: Большая история / Big History (Джеймс Грант Голдин / James Grant Goldin) [2013, Документально-постановочный, история, HDTVRip 720p] TorrentFilm 13.56 GB
Viasat History Viasat History: Загадочные авиакатастрофы Второй Мировой войны / WW II: Air Crash Detectives [серии 1-6 из 6] (Джеймс Фловер) [2014 г., Документальный, авиация, исторический, исследование, SATRip] skorpionN 3.69 GB
Флора и фауна [BBC] Британские времена года / The Great British Year [Серии 1-4 из 4х] (James Brickell / Джеймс Брикл) [2013, Научно-популярный, живая природа, HDTVRip] VO (CSS) [+ Original (Eng) + SUB RUS, SUB... reversefile 4.36 GB
Фильмы 2009 года Аватар / Avatar (Джеймс Кэмерон / James Cameron) [2009, США, Великобритания, фантастика, боевик, драма, приключения, BDRip] [Театральная версия] AVO (Горчаков) TorrentFilm 2.92 GB
Фильмы 2009 года Аватар / Avatar (Джеймс Кэмерон / James Cameron) [2009, США, Фантастика, боевик, драма, приключения, BDRip] [Расширенная версия / Extended Cut] Dub + Sub TorrentFilm 1.47 GB
Фильмы 2009 года Аватар / Avatar (Джеймс Кэмерон / James Cameron) [2009, США, фантастика, приключения, BDRip] [Extended Cut / Расширенная версия] Dub + Sub (Rus) reversefile 2.18 GB
Показать сообщения:    

Текущее время: Сегодня 08:03

Часовой пояс: GMT



Вы не можете начинать темы
Вы не можете отвечать на сообщения
Вы не можете редактировать свои сообщения
Вы не можете удалять свои сообщения
Вы не можете голосовать в опросах
Вы не можете прикреплять файлы к сообщениям
Вы не можете скачивать файлы