Джеймс Бонд. Агент 007: Шаровая молния / James Bond: Thunderball (1965) BDRip 1080p

 
Автор Сообщение

sergej644 ®

Пол:

Стаж: 4 года 11 месяцев

Сообщений: 6038

Откуда: Soviet Union



Награды: Нет

Торрент-статистика

Создавать темы 31-Окт-2014 17:43

[Цитировать]

--Джеймс Бонд. Агент 007: Шаровая молния / James Bond: Thunderball (1965)
Информация о фильме
Название: Джеймс Бонд 007: Шаровая молния
Оригинальное название: James Bond 007: Thunderball
Год выхода: 1965
Страна: Великобритания, США
Выпущено: Eon Productions Ltd., United Artists
Жанр: Боевик, триллер, приключения
Продолжительность: 02:10:23
Перевод: Профессиональный (Дублированный)
Режиссер: Теренс Янг
В ролях: Шон Коннери, Клодин Оже, Адольфо Чели, Лучана Палуцци, Рик Ван Наттер, Гай Доулмен, Молли Питерс, Мартин Бесвик, Бернард Ли, Дезмонд Льюэлин, Лоис Максвелл, Роланд Калвер, Эрл Кэмерон, Пол Стэссино, Роуз Альба, Филип Лок, Джордж Правда, Майкл Бреннан, Леонард Сакс, Эдвард Андердаун, Реджинальд Бекуив, Харольд Сэндерсон-О фильме: Международный преступный синдикат СПЕКТР - неистощим на выдумку. Особенно, если во главе его стоит такой гений от злодейства, как давний оппонент суперагента Джеймса Бонда, маниакально жестокий и властолюбивый Эрнст Блофельд. Порядок в СПЕКТРе куда строже, чем даже в Секретной Службе Её Величества - если временами не слишком дисциплинированного Бонда его шеф отправляет поправить здоровье, то нарушителя дисциплины в организации Блофельда - в назидание остальным могут убить прямо на совещании, в присутствие всех его "коллег по ремеслу". Правда, враги Бонда уже научены горьким опытом - и поправка здоровья для него в итоге едва не оборачивается утратой его навсегда... а в планы Блофельда на этот раз - входит всего-то угон самолёта НАТО с двумя атомными бомбами на борту... Это легко сделать, подкупив и убив затем недалёкого и жадного пилота, и поручив организовать всё дело лучшему из своих людей - холодному и мрачному красавцу Эмилио Ларго и его отряду боевых пловцов. Но это станет гораздо труднее, если на пути безжалостного Ларго встанет сам Джеймс Бонд, любовница злодея - окажется сестрой легковерного лётчика, а в самого Бонда - нормальной женщине просто невозможно не влюбиться! Да и коллеги из ЦРУ - оказывается, могут не только путаться под ногами во время его заданий, но, порою, и вполне ощутимо помочь...
-Файл
Кодек: x264
Формат: MKV
Качество: BDRip 1080p
Видео: AVC (High@L4.1) 1920x816 (2.35:1), 23.976 fps, 7624 kbps, 0.203 Bits/Pixel
Аудио 1: DD (AC-3) 5.1 ch, 448 kbps (Rus)
Аудио 2: DD (AC-3) 5.1 ch, 448 kbps (Eng)
Субтитры: Русские, Английские--

MI

General
Unique ID : 216912034427847149904666709899636438120 (0xA32FBCFD50360889BF4FFDBBE350F468)
Format : Matroska
Format version : Version 2
File size : 7.76 GiB
Duration : 2h 10mn
Overall bit rate : 8 523 Kbps
Movie name : Шаровая молния (1965) BDRip (1080p)
Encoded date : UTC 2013-02-27 10:55:08
Writing application : mkvmerge v5.8.0 ('No Sleep / Pillow') built on Sep 2 2012 15:37:04
Writing library : libebml v1.2.3 + libmatroska v1.3.0
Video
ID : 1
Format : AVC
Format/Info : Advanced Video Codec
Format profile : High@L4.1
Format settings, CABAC : Yes
Format settings, ReFrames : 5 frames
Codec ID : V_MPEG4/ISO/AVC
Duration : 2h 10mn
Bit rate : 7 624 Kbps
Width : 1 920 pixels
Height : 816 pixels
Display aspect ratio : 2.35:1
Frame rate mode : Constant
Frame rate : 23.976 fps
Color space : YUV
Chroma subsampling : 4:2:0
Bit depth : 8 bits
Scan type : Progressive
Bits/(Pixel*Frame) : 0.203
Stream size : 6.79 GiB (87%)
Title : Release by Alex260680
Writing library : x264 core 129 r2245 bc13772
Encoding settings : cabac=1 / ref=5 / deblock=1:0:0 / analyse=0x3:0x113 / me=umh / subme=10 / psy=1 / psy_rd=1.00:0.10 / mixed_ref=1 / me_range=32 / chroma_me=1 / trellis=2 / 8x8dct=1 / cqm=0 / deadzone=21,11 / fast_pskip=0 / chroma_qp_offset=-3 / threads=12 / lookahead_threads=2 / sliced_threads=0 / nr=0 / decimate=0 / interlaced=0 / bluray_compat=0 / constrained_intra=0 / bframes=5 / b_pyramid=2 / b_adapt=2 / b_bias=0 / direct=3 / weightb=1 / open_gop=0 / weightp=2 / keyint=240 / keyint_min=23 / scenecut=40 / intra_refresh=0 / rc=2pass / mbtree=0 / bitrate=7624 / ratetol=1.0 / qcomp=0.60 / qpmin=0 / qpmax=69 / qpstep=4 / cplxblur=20.0 / qblur=0.5 / ip_ratio=1.40 / pb_ratio=1.30 / aq=1:0.80
Language : English
Default : Yes
Forced : No
Audio #1
ID : 2
Format : AC-3
Format/Info : Audio Coding 3
Mode extension : CM (complete main)
Format settings, Endianness : Big
Codec ID : A_AC3
Duration : 2h 10mn
Bit rate mode : Constant
Bit rate : 448 Kbps
Channel(s) : 6 channels
Channel positions : Front: L C R, Side: L R, LFE
Sampling rate : 48.0 KHz
Bit depth : 16 bits
Compression mode : Lossy
Stream size : 418 MiB (5%)
Title : DUB
Language : Russian
Default : Yes
Forced : No
Audio #2
ID : 3
Format : AC-3
Format/Info : Audio Coding 3
Mode extension : CM (complete main)
Format settings, Endianness : Big
Codec ID : A_AC3
Duration : 2h 10mn
Bit rate mode : Constant
Bit rate : 448 Kbps
Channel(s) : 6 channels
Channel positions : Front: L C R, Side: L R, LFE
Sampling rate : 48.0 KHz
Bit depth : 16 bits
Compression mode : Lossy
Stream size : 418 MiB (5%)
Title : Original
Language : English
Default : No
Forced : No
Text #1
ID : 4
Format : UTF-8
Codec ID : S_TEXT/UTF8
Codec ID/Info : UTF-8 Plain Text
Language : Russian
Default : No
Forced : No
Text #2
ID : 5
Format : UTF-8
Codec ID : S_TEXT/UTF8
Codec ID/Info : UTF-8 Plain Text
Language : English
Default : No
Forced : No
Menu
00:00:00.000 : en:Chapter1
00:05:00.000 : en:Chapter2
00:10:00.000 : en:Chapter3
00:15:00.000 : en:Chapter4
00:20:00.000 : en:Chapter5
00:25:00.000 : en:Chapter6
00:30:00.000 : en:Chapter7
00:35:00.000 : en:Chapter8
00:40:00.000 : en:Chapter9
00:45:00.000 : en:Chapter10
00:50:00.000 : en:Chapter11
00:55:00.000 : en:Chapter12
01:00:00.000 : en:Chapter13
01:05:00.000 : en:Chapter14
01:10:00.000 : en:Chapter15
01:15:00.000 : en:Chapter16
01:20:00.000 : en:Chapter17
01:25:00.000 : en:Chapter18
01:30:00.000 : en:Chapter19
01:35:00.000 : en:Chapter20
01:40:00.000 : en:Chapter21
01:45:00.000 : en:Chapter22
01:50:00.000 : en:Chapter23
01:55:00.000 : en:Chapter24
02:00:00.000 : en:Chapter25
02:05:00.000 : en:Chapter26
-Скриншоты
-
[Профиль] [ЛС]
Кто просматривает тему:

Форум Тема Автор Размер
R.G.TorrentFilm Video 24 часа на Земле / 24 Hours on Earth [Серии 1-2 из 2] (Джеймс Хонейборн / James Honeyborne) [2013 г., Документальный, флора, фауна, SATRip] Dub (Видеофильм ТВ) Один 777 999 MB
BBC BBC: Таинственный мир гормонов / The Fantastical World of Hormones with Professor John Wass (Джеймс Сенди / James Sandy) [2014 г., Документальный, научно-познавательный, исследование, HDTVRip 720p] skorpionN 1.75 GB
History History: Большая история / Big History (Джеймс Грант Голдин / James Grant Goldin) [2013, Документально-постановочный, история, HDTVRip 720p] TorrentFilm 13.56 GB
Viasat History Viasat History: Загадочные авиакатастрофы Второй Мировой войны / WW II: Air Crash Detectives [серии 1-6 из 6] (Джеймс Фловер) [2014 г., Документальный, авиация, исторический, исследование, SATRip] skorpionN 3.69 GB
Флора и фауна [BBC] Британские времена года / The Great British Year [Серии 1-4 из 4х] (James Brickell / Джеймс Брикл) [2013, Научно-популярный, живая природа, HDTVRip] VO (CSS) [+ Original (Eng) + SUB RUS, SUB... reversefile 4.36 GB
Фильмы 2009 года Аватар / Avatar (Джеймс Кэмерон / James Cameron) [2009, США, Великобритания, фантастика, боевик, драма, приключения, BDRip] [Театральная версия] AVO (Горчаков) TorrentFilm 2.92 GB
Фильмы 2009 года Аватар / Avatar (Джеймс Кэмерон / James Cameron) [2009, США, Фантастика, боевик, драма, приключения, BDRip] [Расширенная версия / Extended Cut] Dub + Sub TorrentFilm 1.47 GB
Фильмы 2009 года Аватар / Avatar (Джеймс Кэмерон / James Cameron) [2009, США, фантастика, приключения, BDRip] [Extended Cut / Расширенная версия] Dub + Sub (Rus) reversefile 2.18 GB
Показать сообщения:    

Текущее время: Сегодня 00:04

Часовой пояс: GMT



Вы не можете начинать темы
Вы не можете отвечать на сообщения
Вы не можете редактировать свои сообщения
Вы не можете удалять свои сообщения
Вы не можете голосовать в опросах
Вы не можете прикреплять файлы к сообщениям
Вы не можете скачивать файлы