Джеймс Бонд. Агент 007: Человек с золотым пистолетом / James Bond: The Man with the Golden Gun (1974) BDRip 1080p

 
Автор Сообщение

sergej644 ®

Пол:

Стаж: 4 года 11 месяцев

Сообщений: 6035

Откуда: Soviet Union



Награды: Нет

Торрент-статистика

Создавать темы 31-Окт-2014 19:04

[Цитировать]

--Джеймс Бонд. Агент 007: Человек с золотым пистолетом / James Bond: The Man with the Golden Gun (1974)
Информация о фильме
Название: Джеймс Бонд 007: Человек с золотым пистолетом
Оригинальное название: James Bond 007: The Man with the Golden Gun
Год выхода: 1974
Страна: Великобритания
Выпущено: Danjaq, Eon Productions Ltd.
Жанр: Боевик, триллер, приключения
Продолжительность: 02:05:13
Перевод: Профессиональный (Дублированный)
Режиссер: Гай Хэмилтон
В ролях: Роджер Мур, Кристофер Ли, Бритт Экланд, Мод Адамс, Эрве Вилешез, Клифтон Джеймс, Ричард Лу, О Сун Тек, Марк Лоуренс, Бернард Ли, Лоис Максвелл, Марни Мейтленд, Дезмонд Льюэлин, Джеймс Коссинс, Йиу Лам Чан, Кармен Ду Сотой, Джеральд Джеймс, Майкл Осборн, Майкл Флеминг-О фильме: Некоторые суперубийцы не боятся никаких суперагентов. Таков и Франциско Скараманга, таинственная личность, которую не знает в лицо никто - даже тот, кто изготовил этому всесильному пижону золотое оружие, бьющее наповал золотыми пулями... Зато его самого - страшатся многие, и не без оснований. И когда он присылает один из своих "боеприпасов высшей пробы", с отчеканенным на нём номером 007, в штаб-квартиру Секретной Службы Её Величества, то даже руководство предлагает носителю этого служебного номера Джеймсу Бонду "залечь на дно", и переждать трудные времена. Тем более, что от такой же пули уже погибла подруга его коллеги, агента 002, которому расправиться с убийцей - увы, не удалось. Но Бонда испугать невозможно, а закон боевого товарищества - превыше всего. Поэтому он пускается в странствия, которые доведут его и до Китая, и до загадочного острова, на котором окажется готовым к действию кое-что куда похлеще заказного пистолета - там найдётся сверхмощная пушка, работающая на энергии Солнца! Хорошо, когда в серьёзном деле есть верные помощники... А воронёная сталь столь же верного "Вальтера ППК" готова поспорить в умелых руках и со смертельной золотой игрушкой, метнув ей навстречу всё тот же старый, но не слишком добрый свинец.
-Файл
Кодек: x264
Формат: MKV
Качество: BDRip 1080p
Видео: AVC (High@L4.1) 1920x1032 (1.85:1), 23.976 fps, 7972 kbps, 0,168 Bits/Pixel
Аудио 1: DD (AC-3) 5.1 ch, 448 kbps (Rus)
Аудио 2: DD (AC-3) 5.1 ch, 448 kbps (Eng)
Субтитры: Русские, Английские
Размер: (1/3 BD)--

MI

General
Unique ID : 211978827205372895516516203702274420923 (0x9F79A318454CC263A467A99F74BEF0BB)
Format : Matroska
Format version : Version 2
File size : 7.76 GiB
Duration : 2h 5mn
Overall bit rate : 8 869 Kbps
Movie name : Человек с золотым пистолетом (1974) BDRip (1080p)
Encoded date : UTC 2012-12-31 10:01:41
Writing application : mkvmerge v5.8.0 ('No Sleep / Pillow') built on Sep 2 2012 15:37:04
Writing library : libebml v1.2.3 + libmatroska v1.3.0
Video
ID : 1
Format : AVC
Format/Info : Advanced Video Codec
Format profile : High@L4.1
Format settings, CABAC : Yes
Format settings, ReFrames : 4 frames
Codec ID : V_MPEG4/ISO/AVC
Duration : 2h 5mn
Bit rate : 7 972 Kbps
Width : 1 920 pixels
Height : 1 032 pixels
Display aspect ratio : 1.85:1
Frame rate mode : Constant
Frame rate : 23.976 fps
Color space : YUV
Chroma subsampling : 4:2:0
Bit depth : 8 bits
Scan type : Progressive
Bits/(Pixel*Frame) : 0.168
Stream size : 6.82 GiB (88%)
Title : Release by Alex260680
Writing library : x264 core 129 r2230 1cffe9f
Encoding settings : cabac=1 / ref=4 / deblock=1:0:0 / analyse=0x3:0x113 / me=umh / subme=10 / psy=1 / psy_rd=1.00:0.10 / mixed_ref=1 / me_range=32 / chroma_me=1 / trellis=2 / 8x8dct=1 / cqm=0 / deadzone=21,11 / fast_pskip=0 / chroma_qp_offset=-3 / threads=12 / lookahead_threads=2 / sliced_threads=0 / nr=0 / decimate=0 / interlaced=0 / bluray_compat=0 / constrained_intra=0 / bframes=10 / b_pyramid=2 / b_adapt=2 / b_bias=0 / direct=3 / weightb=1 / open_gop=0 / weightp=2 / keyint=240 / keyint_min=23 / scenecut=40 / intra_refresh=0 / rc=2pass / mbtree=0 / bitrate=7972 / ratetol=1.0 / qcomp=0.60 / qpmin=0 / qpmax=69 / qpstep=4 / cplxblur=20.0 / qblur=0.5 / ip_ratio=1.40 / pb_ratio=1.30 / aq=1:0.80
Language : English
Default : Yes
Forced : No
Audio #1
ID : 2
Format : AC-3
Format/Info : Audio Coding 3
Mode extension : CM (complete main)
Format settings, Endianness : Big
Codec ID : A_AC3
Duration : 2h 5mn
Bit rate mode : Constant
Bit rate : 448 Kbps
Channel(s) : 6 channels
Channel positions : Front: L C R, Side: L R, LFE
Sampling rate : 48.0 KHz
Bit depth : 16 bits
Compression mode : Lossy
Stream size : 401 MiB (5%)
Title : DUB
Language : Russian
Default : Yes
Forced : No
Audio #2
ID : 3
Format : AC-3
Format/Info : Audio Coding 3
Mode extension : CM (complete main)
Format settings, Endianness : Big
Codec ID : A_AC3
Duration : 2h 5mn
Bit rate mode : Constant
Bit rate : 448 Kbps
Channel(s) : 6 channels
Channel positions : Front: L C R, Side: L R, LFE
Sampling rate : 48.0 KHz
Bit depth : 16 bits
Compression mode : Lossy
Stream size : 401 MiB (5%)
Title : Original
Language : English
Default : No
Forced : No
Text #1
ID : 4
Format : UTF-8
Codec ID : S_TEXT/UTF8
Codec ID/Info : UTF-8 Plain Text
Language : Russian
Default : No
Forced : No
Text #2
ID : 5
Format : UTF-8
Codec ID : S_TEXT/UTF8
Codec ID/Info : UTF-8 Plain Text
Language : English
Default : No
Forced : No
Menu
00:00:00.000 : en:Chapter1
00:08:18.080 : en:Chapter2
00:10:49.815 : en:Chapter3
00:14:58.772 : en:Chapter4
00:19:58.405 : en:Chapter5
00:21:31.873 : en:Chapter6
00:24:56.745 : en:Chapter7
00:28:03.139 : en:Chapter8
00:33:17.996 : en:Chapter9
00:36:42.575 : en:Chapter10
00:39:41.128 : en:Chapter11
00:44:04.266 : en:Chapter12
00:48:27.988 : en:Chapter13
00:51:51.608 : en:Chapter14
00:56:46.277 : en:Chapter15
00:58:43.311 : en:Chapter16
01:03:23.800 : en:Chapter17
01:05:25.254 : en:Chapter18
01:07:53.486 : en:Chapter19
01:14:53.197 : en:Chapter20
01:19:22.799 : en:Chapter21
01:27:17.232 : en:Chapter22
01:31:06.669 : en:Chapter23
01:33:48.164 : en:Chapter24
01:36:57.394 : en:Chapter25
01:42:02.449 : en:Chapter26
01:45:31.241 : en:Chapter27
01:48:30.212 : en:Chapter28
01:52:38.001 : en:Chapter29
01:58:54.627 : en:Chapter30
02:01:59.729 : en:Chapter31
02:03:41.414 : en:Chapter32
02:05:12.755 : en:Chapter33

x264

x264 [info]: frame I:1330 Avg QP:19.03 size:177932
x264 [info]: frame P:38321 Avg QP:21.85 size: 85285
x264 [info]: frame B:140481 Avg QP:23.46 size: 28339
-Скриншоты
-
[Профиль] [ЛС]
Кто просматривает тему:

Форум Тема Автор Размер
R.G.TorrentFilm Video 24 часа на Земле / 24 Hours on Earth [Серии 1-2 из 2] (Джеймс Хонейборн / James Honeyborne) [2013 г., Документальный, флора, фауна, SATRip] Dub (Видеофильм ТВ) Один 777 999 MB
BBC BBC: Таинственный мир гормонов / The Fantastical World of Hormones with Professor John Wass (Джеймс Сенди / James Sandy) [2014 г., Документальный, научно-познавательный, исследование, HDTVRip 720p] skorpionN 1.75 GB
History History: Большая история / Big History (Джеймс Грант Голдин / James Grant Goldin) [2013, Документально-постановочный, история, HDTVRip 720p] TorrentFilm 13.56 GB
Viasat History Viasat History: Загадочные авиакатастрофы Второй Мировой войны / WW II: Air Crash Detectives [серии 1-6 из 6] (Джеймс Фловер) [2014 г., Документальный, авиация, исторический, исследование, SATRip] skorpionN 3.69 GB
Флора и фауна [BBC] Британские времена года / The Great British Year [Серии 1-4 из 4х] (James Brickell / Джеймс Брикл) [2013, Научно-популярный, живая природа, HDTVRip] VO (CSS) [+ Original (Eng) + SUB RUS, SUB... reversefile 4.36 GB
Фильмы 2009 года Аватар / Avatar (Джеймс Кэмерон / James Cameron) [2009, США, Великобритания, фантастика, боевик, драма, приключения, BDRip] [Театральная версия] AVO (Горчаков) TorrentFilm 2.92 GB
Фильмы 2009 года Аватар / Avatar (Джеймс Кэмерон / James Cameron) [2009, США, Фантастика, боевик, драма, приключения, BDRip] [Расширенная версия / Extended Cut] Dub + Sub TorrentFilm 1.47 GB
Фильмы 2009 года Аватар / Avatar (Джеймс Кэмерон / James Cameron) [2009, США, фантастика, приключения, BDRip] [Extended Cut / Расширенная версия] Dub + Sub (Rus) reversefile 2.18 GB
Показать сообщения:    

Текущее время: Сегодня 18:20

Часовой пояс: GMT



Вы не можете начинать темы
Вы не можете отвечать на сообщения
Вы не можете редактировать свои сообщения
Вы не можете удалять свои сообщения
Вы не можете голосовать в опросах
Вы не можете прикреплять файлы к сообщениям
Вы не можете скачивать файлы