Джеймс Бонд. Агент 007: На секретной службе ее Величества / James Bond: On Her Majesty's Secret Service (1969) BDRip 1080p

 
Автор Сообщение

sergej644 ®

Пол:

Стаж: 4 года 11 месяцев

Сообщений: 6043

Откуда: Soviet Union



Награды: Нет

Торрент-статистика

Создавать темы 31-Окт-2014 17:38

[Цитировать]

--Джеймс Бонд. Агент 007: На секретной службе ее Величества / James Bond: On Her Majesty's Secret Service (1969)
Информация о фильме
Название: Джеймс Бонд 007: На секретной службе ее Величества
Оригинальное название: James Bond 007: On Her Majesty's Secret Service
Год выхода: 1969
Страна: Великобритания
Выпущено: Danjaq Productions, Eon Productions Ltd.
Жанр: Боевик, триллер, приключения
Продолжительность: 02:22:18
Перевод: Профессиональный (Дублированный)
Режиссер: Питер Р. Хант
В ролях: Джордж Лэзенби, Дайана Ригг, Телли Савалас, Габриэле Ферцетти, Ильзе Штеппат, Анджела Скулар, Лоис Максвелл, Кэтрин Шелл, Джордж Бейкер, Бернард Ли, Бернард Хорсфолл, Дезмонд Льюэлин, Вирджиния Норт, Джеффри Чешир, Ирвин Аллен, Теренс Маунтин, Джеймс Бри, Джон Гэй, Джули Эдж, Мона Чонг, Сильвана Энрикес, Сэлли Шеридан, Джоанна Ламли, Анушка Хемпель, Ингрид Бэк, Хелена Рони, Дженни Хэнли-О фильме:
Суперагент Джеймс Бонд идёт по кровавым следам своего "старого знакомого", чудовищного гения международной преступности Блофельда, как веком раньше - Шерлок Холмс гнался за профессором Мориарти... Только в другом веке - и методы совсем другие, а ставками в большой игре могут оказаться судьбы всего мира. Настоящему профессионалу - всё в деле на руку... даже головокружительный роман. Тем более - если это роман с дочерью, как выясняется, влиятельнейшего главаря мафии. Как обычно, нигде не упуская своего, агент 007 успешно занимается как любовью, так и войной - ведь связи отца его девушки могут помочь ему выйти на прекрасно замаскированную под невиннейшее медицинское учреждение тайную лабораторию Блофельда, где разрабатывается новое адское оружие - смертоносный вирус, защиты от которого не существует. За всё на свете, однако, приходится платить - и это предстоит сполна почувствовать и Блофельду, и Бонду... В этой части Бондианы привычного и полюбившегося зрителям Шона Коннери в главной роли сменил Джордж Лэзенби. Однако - всего на один фильм, хотя нельзя сказать, что роль величайшего суперагента ему не удалась.
-Файл
Кодек: x264
Формат: MKV
Качество: BDRip 1080p
Видео: AVC (High@L4.1) 1920x816 (2.35:1), 23.976 fps, 6910 kbps, 0.184 Bits/Pixel
Аудио 1: DD (AC-3) 5.1 ch, 448 kbps (Rus)
Аудио 2: DD (AC-3) 5.1 ch, 448 kbps (Eng)
Субтитры: Русские, Английские--

MI

General
Unique ID : 200829547210687241754309407632070573755 (0x97165D268623768EA9138415D8847EBB)
Format : Matroska
Format version : Version 2
File size : 7.76 GiB
Duration : 2h 22mn
Overall bit rate : 7 808 Kbps
Movie name : На секретной службе ее Величества (1969) BDRip (1080p)
Encoded date : UTC 2013-03-04 11:30:54
Writing application : mkvmerge v5.8.0 ('No Sleep / Pillow') built on Sep 2 2012 15:37:04
Writing library : libebml v1.2.3 + libmatroska v1.3.0
Video
ID : 1
Format : AVC
Format/Info : Advanced Video Codec
Format profile : High@L4.1
Format settings, CABAC : Yes
Format settings, ReFrames : 5 frames
Codec ID : V_MPEG4/ISO/AVC
Duration : 2h 22mn
Bit rate : 6 910 Kbps
Width : 1 920 pixels
Height : 816 pixels
Display aspect ratio : 2.35:1
Frame rate mode : Constant
Frame rate : 23.976 fps
Color space : YUV
Chroma subsampling : 4:2:0
Bit depth : 8 bits
Scan type : Progressive
Bits/(Pixel*Frame) : 0.184
Stream size : 6.72 GiB (87%)
Title : Release by Alex260680
Writing library : x264 core 129 r2245 bc13772
Encoding settings : cabac=1 / ref=5 / deblock=1:0:0 / analyse=0x3:0x113 / me=umh / subme=10 / psy=1 / psy_rd=1.00:0.10 / mixed_ref=1 / me_range=32 / chroma_me=1 / trellis=2 / 8x8dct=1 / cqm=0 / deadzone=21,11 / fast_pskip=0 / chroma_qp_offset=-3 / threads=12 / lookahead_threads=2 / sliced_threads=0 / nr=0 / decimate=0 / interlaced=0 / bluray_compat=0 / constrained_intra=0 / bframes=5 / b_pyramid=2 / b_adapt=2 / b_bias=0 / direct=3 / weightb=1 / open_gop=0 / weightp=2 / keyint=240 / keyint_min=23 / scenecut=40 / intra_refresh=0 / rc=2pass / mbtree=0 / bitrate=6910 / ratetol=1.0 / qcomp=0.60 / qpmin=0 / qpmax=69 / qpstep=4 / cplxblur=20.0 / qblur=0.5 / ip_ratio=1.40 / pb_ratio=1.30 / aq=1:0.80
Language : English
Default : Yes
Forced : No
Audio #1
ID : 2
Format : AC-3
Format/Info : Audio Coding 3
Mode extension : CM (complete main)
Format settings, Endianness : Big
Codec ID : A_AC3
Duration : 2h 22mn
Bit rate mode : Constant
Bit rate : 448 Kbps
Channel(s) : 6 channels
Channel positions : Front: L C R, Side: L R, LFE
Sampling rate : 48.0 KHz
Bit depth : 16 bits
Compression mode : Lossy
Delay relative to video : 23ms
Stream size : 456 MiB (6%)
Title : DUB
Language : Russian
Default : Yes
Forced : No
Audio #2
ID : 3
Format : AC-3
Format/Info : Audio Coding 3
Mode extension : CM (complete main)
Format settings, Endianness : Big
Codec ID : A_AC3
Duration : 2h 22mn
Bit rate mode : Constant
Bit rate : 448 Kbps
Channel(s) : 6 channels
Channel positions : Front: L C R, Side: L R, LFE
Sampling rate : 48.0 KHz
Bit depth : 16 bits
Compression mode : Lossy
Stream size : 456 MiB (6%)
Title : Original
Language : English
Default : No
Forced : No
Text #1
ID : 4
Format : UTF-8
Codec ID : S_TEXT/UTF8
Codec ID/Info : UTF-8 Plain Text
Language : Russian
Default : No
Forced : No
Text #2
ID : 5
Format : UTF-8
Codec ID : S_TEXT/UTF8
Codec ID/Info : UTF-8 Plain Text
Language : English
Default : No
Forced : No
Menu
00:00:00.000 : en:Chapter1
00:01:28.254 : en:Chapter2
00:06:56.833 : en:Chapter3
00:09:28.442 : en:Chapter4
00:14:07.304 : en:Chapter5
00:15:43.442 : en:Chapter6
00:19:43.932 : en:Chapter7
00:26:47.105 : en:Chapter8
00:30:36.251 : en:Chapter9
00:34:59.013 : en:Chapter10
00:37:13.314 : en:Chapter11
00:43:52.129 : en:Chapter12
00:47:43.026 : en:Chapter13
00:54:49.869 : en:Chapter14
00:57:09.217 : en:Chapter15
01:02:37.253 : en:Chapter16
01:06:04.669 : en:Chapter17
01:13:21.063 : en:Chapter18
01:18:08.058 : en:Chapter19
01:22:19.184 : en:Chapter20
01:29:14.932 : en:Chapter21
01:31:36.282 : en:Chapter22
01:38:32.197 : en:Chapter23
01:44:17.668 : en:Chapter24
01:48:26.625 : en:Chapter25
01:53:53.034 : en:Chapter26
01:58:39.320 : en:Chapter27
02:00:46.906 : en:Chapter28
02:05:41.867 : en:Chapter29
02:09:09.908 : en:Chapter30
02:11:52.404 : en:Chapter31
02:15:41.758 : en:Chapter32
02:22:18.279 : en:Chapter33
-Скриншоты
-
[Профиль] [ЛС]
Кто просматривает тему:

Форум Тема Автор Размер
R.G.TorrentFilm Video 24 часа на Земле / 24 Hours on Earth [Серии 1-2 из 2] (Джеймс Хонейборн / James Honeyborne) [2013 г., Документальный, флора, фауна, SATRip] Dub (Видеофильм ТВ) Один 777 999 MB
BBC BBC: Таинственный мир гормонов / The Fantastical World of Hormones with Professor John Wass (Джеймс Сенди / James Sandy) [2014 г., Документальный, научно-познавательный, исследование, HDTVRip 720p] skorpionN 1.75 GB
History History: Большая история / Big History (Джеймс Грант Голдин / James Grant Goldin) [2013, Документально-постановочный, история, HDTVRip 720p] TorrentFilm 13.56 GB
Viasat History Viasat History: Загадочные авиакатастрофы Второй Мировой войны / WW II: Air Crash Detectives [серии 1-6 из 6] (Джеймс Фловер) [2014 г., Документальный, авиация, исторический, исследование, SATRip] skorpionN 3.69 GB
Флора и фауна [BBC] Британские времена года / The Great British Year [Серии 1-4 из 4х] (James Brickell / Джеймс Брикл) [2013, Научно-популярный, живая природа, HDTVRip] VO (CSS) [+ Original (Eng) + SUB RUS, SUB... reversefile 4.36 GB
Фильмы 2009 года Аватар / Avatar (Джеймс Кэмерон / James Cameron) [2009, США, Великобритания, фантастика, боевик, драма, приключения, BDRip] [Театральная версия] AVO (Горчаков) TorrentFilm 2.92 GB
Фильмы 2009 года Аватар / Avatar (Джеймс Кэмерон / James Cameron) [2009, США, Фантастика, боевик, драма, приключения, BDRip] [Расширенная версия / Extended Cut] Dub + Sub TorrentFilm 1.47 GB
Фильмы 2009 года Аватар / Avatar (Джеймс Кэмерон / James Cameron) [2009, США, фантастика, приключения, BDRip] [Extended Cut / Расширенная версия] Dub + Sub (Rus) reversefile 2.18 GB
Показать сообщения:    

Текущее время: Сегодня 20:34

Часовой пояс: GMT



Вы не можете начинать темы
Вы не можете отвечать на сообщения
Вы не можете редактировать свои сообщения
Вы не можете удалять свои сообщения
Вы не можете голосовать в опросах
Вы не можете прикреплять файлы к сообщениям
Вы не можете скачивать файлы