Джеймс Бонд. Агент 007: Из России с любовью / James Bond: From Russia With Love (1963) BDRip 1080p

 
Автор Сообщение

sergej644 ®

Пол:

Стаж: 4 года 11 месяцев

Сообщений: 6038

Откуда: Soviet Union



Награды: Нет

Торрент-статистика

Создавать темы 31-Окт-2014 17:47

[Цитировать]

--Джеймс Бонд. Агент 007: Из России с любовью / James Bond: From Russia With Love (1963) Информация о фильме
Название: Джеймс Бонд 007: Из России с любовью
Оригинальное название: James Bond 007: From Russia With Love
Год выхода: 1963
Страна: Великобритания
Выпущено: Eon Productions Ltd., Danjaq
Жанр: Боевик, триллер, приключения
Продолжительность: 01:55:12
Перевод: Профессиональный (Дублированный)
Режиссер: Теренс Янг
В ролях: Шон Коннери, Даниэла Бьянки, Педро Армендарис, Лотте Ленья, Роберт Шоу, Бернард Ли, Юнис Гейсон, Уолтер Готелл, Френсис Де Фолфф, Джордж Пэстелл, Надя Регин, Лоис Максвелл, Ализа Гар, Мартин Бесвик, Владек Шейбал, Энтони Доусон, Хасан Сейлан, Фред Хэггерти, Невилл Джейсон, Питер Бэйлисс, Дезмонд Льюэлин, Жан Уильямс, Питер Мэдден, Дороти Беннетт, Элизабет Коунселл, Майкл Калвер, Арлетт Добсон, Морис Фархи, Билл Хилл, Барбара Джеффорд, Джули Мендез, Эрик Полманн, Боб Симмонс, Никки Ван Дер Зиль.-О фильме: Первое большое задание Джеймса Бонда увенчалось победой, только вот не все побеждённые с ней согласны. Доктор Ноу умер, но дело его живёт, пока живёт могущественная международная преступная организация СПЕКТР. Когда Бонд отправляется в СССР, новое задание кажется ему, первоклассному профессионалу, лёгкой прогулкой в экзотическую для респектабельного джентльмена закрытую страну. Всего-то и дел: вывезти оттуда сногсшибательную красотку - русскую агентессу - и сверхсекретнейший шифровальный аппарат... Но СПЕКТР тем и силён, что никогда и никому ничего не прощает: на пути Бонда встаёт лучший секретный агент этой организации - Блофельд. Агент номер 1. И у него тоже - всего-то дел - вернуть аппарат в СССР за немалые, по такому сложному случаю, деньги, уничтожить самого Бонда, и, заодно, спровоцировать по возможности серьёзный конфликт, а коль удастся - то и целую войну между Востоком и Западом. И оба они - Бонд и Блофельд - рьяно приступают к делу. А то, что их интересы в корне не совпадают, никого из них уже не может смутить ни на миг... Второй фильм Бондианы Шона Коннери, вызвавший в своё время возмущённый шквал советской критики, сейчас смотрится на одном дыхании и с лёгкой улыбкой, как и положено захватывающему шпионскому боевику.
-Файл
Кодек: x264
Формат: MKV
Качество: BDRip 1080p
Видео: AVC (High@L4.1) 1792x1080 (1.66:1), 23.976 fps, 8746 kbps, 0.188 Bits/Pixel
Аудио 1: DD (AC-3) 5.1 ch, 448 kbps (Rus)
Аудио 2: DD (AC-3) 5.1 ch, 448 kbps (Eng)
Субтитры: Русские, Английские--

MI

General
Unique ID : 199257853909039272788386389667122291106 (0x95E7AAB01D00CE3EB4B2170F3E84A1A2)
Format : Matroska
Format version : Version 2
File size : 7.76 GiB
Duration : 1h 55mn
Overall bit rate : 9 644 Kbps
Movie name : Из России с любовью (1963) BDRip (1080p)
Encoded date : UTC 2013-02-21 13:43:35
Writing application : mkvmerge v5.8.0 ('No Sleep / Pillow') built on Sep 2 2012 15:37:04
Writing library : libebml v1.2.3 + libmatroska v1.3.0
Video
ID : 1
Format : AVC
Format/Info : Advanced Video Codec
Format profile : High@L4.1
Format settings, CABAC : Yes
Format settings, ReFrames : 4 frames
Codec ID : V_MPEG4/ISO/AVC
Duration : 1h 55mn
Bit rate : 8 746 Kbps
Width : 1 792 pixels
Height : 1 080 pixels
Display aspect ratio : 1.659
Frame rate mode : Constant
Frame rate : 23.976 fps
Color space : YUV
Chroma subsampling : 4:2:0
Bit depth : 8 bits
Scan type : Progressive
Bits/(Pixel*Frame) : 0.188
Stream size : 6.89 GiB (89%)
Title : Release by Alex260680
Writing library : x264 core 129 r2245 bc13772
Encoding settings : cabac=1 / ref=4 / deblock=1:0:0 / analyse=0x3:0x113 / me=umh / subme=10 / psy=1 / psy_rd=1.00:0.10 / mixed_ref=1 / me_range=32 / chroma_me=1 / trellis=2 / 8x8dct=1 / cqm=0 / deadzone=21,11 / fast_pskip=0 / chroma_qp_offset=-3 / threads=12 / lookahead_threads=2 / sliced_threads=0 / nr=0 / decimate=0 / interlaced=0 / bluray_compat=0 / constrained_intra=0 / bframes=6 / b_pyramid=2 / b_adapt=2 / b_bias=0 / direct=3 / weightb=1 / open_gop=0 / weightp=2 / keyint=240 / keyint_min=23 / scenecut=40 / intra_refresh=0 / rc=2pass / mbtree=0 / bitrate=8746 / ratetol=1.0 / qcomp=0.60 / qpmin=0 / qpmax=69 / qpstep=4 / cplxblur=20.0 / qblur=0.5 / ip_ratio=1.40 / pb_ratio=1.30 / aq=1:0.80
Language : English
Default : Yes
Forced : No
Audio #1
ID : 2
Format : AC-3
Format/Info : Audio Coding 3
Mode extension : CM (complete main)
Format settings, Endianness : Big
Codec ID : A_AC3
Duration : 1h 55mn
Bit rate mode : Constant
Bit rate : 448 Kbps
Channel(s) : 6 channels
Channel positions : Front: L C R, Side: L R, LFE
Sampling rate : 48.0 KHz
Bit depth : 16 bits
Compression mode : Lossy
Stream size : 369 MiB (5%)
Title : DUB
Language : Russian
Default : Yes
Forced : No
Audio #2
ID : 3
Format : AC-3
Format/Info : Audio Coding 3
Mode extension : CM (complete main)
Format settings, Endianness : Big
Codec ID : A_AC3
Duration : 1h 55mn
Bit rate mode : Constant
Bit rate : 448 Kbps
Channel(s) : 6 channels
Channel positions : Front: L C R, Side: L R, LFE
Sampling rate : 48.0 KHz
Bit depth : 16 bits
Compression mode : Lossy
Stream size : 369 MiB (5%)
Title : Original
Language : English
Default : No
Forced : No
Text #1
ID : 4
Format : UTF-8
Codec ID : S_TEXT/UTF8
Codec ID/Info : UTF-8 Plain Text
Language : Russian
Default : No
Forced : No
Text #2
ID : 5
Format : UTF-8
Codec ID : S_TEXT/UTF8
Codec ID/Info : UTF-8 Plain Text
Language : English
Default : No
Forced : No
Menu
00:00:00.000 : en:Chapter1
00:03:10.064 : en:Chapter2
00:05:37.003 : en:Chapter3
00:08:04.192 : en:Chapter4
00:11:16.550 : en:Chapter5
00:14:03.008 : en:Chapter6
00:17:53.280 : en:Chapter7
00:19:34.965 : en:Chapter8
00:24:27.549 : en:Chapter9
00:29:04.492 : en:Chapter10
00:31:36.477 : en:Chapter11
00:33:53.489 : en:Chapter12
00:38:21.173 : en:Chapter13
00:48:53.764 : en:Chapter14
00:51:34.091 : en:Chapter15
00:55:35.165 : en:Chapter16
00:59:50.295 : en:Chapter17
01:03:31.933 : en:Chapter18
01:06:43.457 : en:Chapter19
01:09:55.733 : en:Chapter20
01:12:06.697 : en:Chapter21
01:14:26.879 : en:Chapter22
01:16:16.697 : en:Chapter23
01:20:20.649 : en:Chapter24
01:24:27.520 : en:Chapter25
01:26:31.603 : en:Chapter26
01:36:26.697 : en:Chapter27
01:39:11.820 : en:Chapter28
01:44:09.326 : en:Chapter29
01:45:45.339 : en:Chapter30
01:49:12.712 : en:Chapter31
01:53:37.393 : en:Chapter32
01:55:12.113 : en:Chapter33
-Скриншоты
-
[Профиль] [ЛС]
Кто просматривает тему:

Форум Тема Автор Размер
R.G.TorrentFilm Video 24 часа на Земле / 24 Hours on Earth [Серии 1-2 из 2] (Джеймс Хонейборн / James Honeyborne) [2013 г., Документальный, флора, фауна, SATRip] Dub (Видеофильм ТВ) Один 777 999 MB
BBC BBC: Таинственный мир гормонов / The Fantastical World of Hormones with Professor John Wass (Джеймс Сенди / James Sandy) [2014 г., Документальный, научно-познавательный, исследование, HDTVRip 720p] skorpionN 1.75 GB
History History: Большая история / Big History (Джеймс Грант Голдин / James Grant Goldin) [2013, Документально-постановочный, история, HDTVRip 720p] TorrentFilm 13.56 GB
Viasat History Viasat History: Загадочные авиакатастрофы Второй Мировой войны / WW II: Air Crash Detectives [серии 1-6 из 6] (Джеймс Фловер) [2014 г., Документальный, авиация, исторический, исследование, SATRip] skorpionN 3.69 GB
Флора и фауна [BBC] Британские времена года / The Great British Year [Серии 1-4 из 4х] (James Brickell / Джеймс Брикл) [2013, Научно-популярный, живая природа, HDTVRip] VO (CSS) [+ Original (Eng) + SUB RUS, SUB... reversefile 4.36 GB
Фильмы 2009 года Аватар / Avatar (Джеймс Кэмерон / James Cameron) [2009, США, Великобритания, фантастика, боевик, драма, приключения, BDRip] [Театральная версия] AVO (Горчаков) TorrentFilm 2.92 GB
Фильмы 2009 года Аватар / Avatar (Джеймс Кэмерон / James Cameron) [2009, США, Фантастика, боевик, драма, приключения, BDRip] [Расширенная версия / Extended Cut] Dub + Sub TorrentFilm 1.47 GB
Фильмы 2009 года Аватар / Avatar (Джеймс Кэмерон / James Cameron) [2009, США, фантастика, приключения, BDRip] [Extended Cut / Расширенная версия] Dub + Sub (Rus) reversefile 2.18 GB
Показать сообщения:    

Текущее время: Сегодня 22:07

Часовой пояс: GMT



Вы не можете начинать темы
Вы не можете отвечать на сообщения
Вы не можете редактировать свои сообщения
Вы не можете удалять свои сообщения
Вы не можете голосовать в опросах
Вы не можете прикреплять файлы к сообщениям
Вы не можете скачивать файлы