Джеймс Бонд. Агент 007: Доктор Ноу / James Bond: Dr. No (1962) BDRip 1080p

 
Автор Сообщение

sergej644 ®

Пол:

Стаж: 4 года 11 месяцев

Сообщений: 6038

Откуда: Soviet Union



Награды: Нет

Торрент-статистика

Создавать темы 31-Окт-2014 17:49

[Цитировать]

--Джеймс Бонд. Агент 007: Доктор Ноу / James Bond: Dr. No (1962)
Информация о фильме
Название: Джеймс Бонд 007: Доктор Ноу
Оригинальное название: James Bond 007: Dr. No
Год выхода: 1962
Страна: Великобритания
Выпущено: United Artists, Eon Productions Ltd., Metro-Goldwyn-Mayer
Жанр: Боевик, триллер, криминал, приключения
Продолжительность: 01:49:50
Перевод: Профессиональный (Дублированный)
Режиссер: Теренс Янг
В ролях: Шон Коннери, Урсула Андресс, Джозеф Уайзмен, Джек Лорд, Бернард Ли, Энтони Доусон, Зена Маршалл, Джон Кицмиллер, Юнис Гейсон, Лоис Максвелл, Питер Бертон, Ивонн Сима, Мишель Мок, Маргерит ЛеВарс, Уильям Фостер-Дэвис, Долорес Китор, Регги Картер, Луис Блаазер, Полковник Бертон-О фильме: Первый фильм по роману Яна Флеминга о легендарном агенте 007 Джеймсе Бонде, которому в самые отчаянные минуты приходят в голову самые остроумные решения. Дебют актера Шона Коннери, старт его восхождения к славе.
Действие фильма происходит на Ямайке. Бонд разоблачает и уничтожает злодея-преступника доктора Ноу (Уайзмэн). Бонду дано задание выяснить что является источником электронных помех в компьютерах американских пусковых шахт на мысе Канаверал. По агентурным данным мозговой центр вражеских сил находится на Ямайке. Бонд незамедлительно выдвигается туда. В процессе расследования ему придется столкнуться с могущественной структурой СПЕКТР и ее представителем Доктором Ноу, готовым пойти на все, лишь бы держать весь мир в своих металлических руках. И только Бонд и его верный Валльтер ППК могут остановить злые силы на знойном океанском побережье.
-Файл
Кодек: x264
Формат: MKV
Качество: BDRip 1080p
Видео: AVC (High@L4.1) 1792x1080 (1.66:1), 23.976 fps, 9220 kbps, 0.199 Bits/Pixel
Аудио 1: DD (AC-3) 5.1 ch, 448 kbps (Rus)
Аудио 2: DD (AC-3) 5.1 ch, 448 kbps (Eng)
Субтитры: Русские, Английские--

MI

General
Unique ID : 186923648264674240625946098833538443248 (0x8CA02F66095BED4A9F5CFE0DE29C67F0)
Format : Matroska
Format version : Version 2
File size : 7.76 GiB
Duration : 1h 49mn
Overall bit rate : 10.1 Mbps
Movie name : Доктор Ноу (1962) BDRip (1080p)
Encoded date : UTC 2013-02-18 11:49:57
Writing application : mkvmerge v5.8.0 ('No Sleep / Pillow') built on Sep 2 2012 15:37:04
Writing library : libebml v1.2.3 + libmatroska v1.3.0
Video
ID : 1
Format : AVC
Format/Info : Advanced Video Codec
Format profile : High@L4.1
Format settings, CABAC : Yes
Format settings, ReFrames : 4 frames
Codec ID : V_MPEG4/ISO/AVC
Duration : 1h 49mn
Bit rate : 9 220 Kbps
Width : 1 792 pixels
Height : 1 080 pixels
Display aspect ratio : 1.659
Frame rate mode : Constant
Frame rate : 23.976 fps
Color space : YUV
Chroma subsampling : 4:2:0
Bit depth : 8 bits
Scan type : Progressive
Bits/(Pixel*Frame) : 0.199
Stream size : 6.92 GiB (89%)
Title : Release by Alex260680
Writing library : x264 core 129 r2245 bc13772
Encoding settings : cabac=1 / ref=4 / deblock=1:0:0 / analyse=0x3:0x113 / me=umh / subme=10 / psy=1 / psy_rd=1.00:0.10 / mixed_ref=1 / me_range=32 / chroma_me=1 / trellis=2 / 8x8dct=1 / cqm=0 / deadzone=21,11 / fast_pskip=0 / chroma_qp_offset=-3 / threads=12 / lookahead_threads=2 / sliced_threads=0 / nr=0 / decimate=0 / interlaced=0 / bluray_compat=0 / constrained_intra=0 / bframes=6 / b_pyramid=2 / b_adapt=2 / b_bias=0 / direct=3 / weightb=1 / open_gop=0 / weightp=2 / keyint=240 / keyint_min=23 / scenecut=40 / intra_refresh=0 / rc=2pass / mbtree=0 / bitrate=9220 / ratetol=1.0 / qcomp=0.60 / qpmin=0 / qpmax=69 / qpstep=4 / cplxblur=20.0 / qblur=0.5 / ip_ratio=1.40 / pb_ratio=1.30 / aq=1:0.80
Language : English
Default : Yes
Forced : No
Audio #1
ID : 2
Format : AC-3
Format/Info : Audio Coding 3
Mode extension : CM (complete main)
Format settings, Endianness : Big
Codec ID : A_AC3
Duration : 1h 49mn
Bit rate mode : Constant
Bit rate : 448 Kbps
Channel(s) : 6 channels
Channel positions : Front: L C R, Side: L R, LFE
Sampling rate : 48.0 KHz
Bit depth : 16 bits
Compression mode : Lossy
Stream size : 352 MiB (4%)
Title : DUB
Language : Russian
Default : Yes
Forced : No
Audio #2
ID : 3
Format : AC-3
Format/Info : Audio Coding 3
Mode extension : CM (complete main)
Format settings, Endianness : Big
Codec ID : A_AC3
Duration : 1h 49mn
Bit rate mode : Constant
Bit rate : 448 Kbps
Channel(s) : 6 channels
Channel positions : Front: L C R, Side: L R, LFE
Sampling rate : 48.0 KHz
Bit depth : 16 bits
Compression mode : Lossy
Stream size : 352 MiB (4%)
Title : Original
Language : English
Default : No
Forced : No
Text #1
ID : 4
Format : UTF-8
Codec ID : S_TEXT/UTF8
Codec ID/Info : UTF-8 Plain Text
Language : Russian
Default : No
Forced : No
Text #2
ID : 5
Format : UTF-8
Codec ID : S_TEXT/UTF8
Codec ID/Info : UTF-8 Plain Text
Language : English
Default : No
Forced : No
Menu
00:00:00.000 : en:Chapter1
00:02:50.670 : en:Chapter2
00:06:33.685 : en:Chapter3
00:09:41.915 : en:Chapter4
00:16:26.861 : en:Chapter5
00:19:00.848 : en:Chapter6
00:22:06.492 : en:Chapter7
00:24:32.471 : en:Chapter8
00:26:43.602 : en:Chapter9
00:28:28.123 : en:Chapter10
00:31:22.255 : en:Chapter11
00:36:07.582 : en:Chapter12
00:37:39.257 : en:Chapter13
00:41:18.059 : en:Chapter14
00:44:38.217 : en:Chapter15
00:46:44.677 : en:Chapter16
00:48:18.896 : en:Chapter17
00:51:24.248 : en:Chapter18
00:55:28.575 : en:Chapter19
00:58:50.110 : en:Chapter20
01:01:55.921 : en:Chapter21
01:08:08.126 : en:Chapter22
01:12:39.855 : en:Chapter23
01:15:17.930 : en:Chapter24
01:18:04.305 : en:Chapter25
01:20:54.433 : en:Chapter26
01:26:28.600 : en:Chapter27
01:34:00.760 : en:Chapter28
01:39:03.271 : en:Chapter29
01:43:05.429 : en:Chapter30
01:45:19.021 : en:Chapter31
01:47:30.194 : en:Chapter32
-Скриншоты
--
[Профиль] [ЛС]
Кто просматривает тему:

Форум Тема Автор Размер
R.G.TorrentFilm Video 24 часа на Земле / 24 Hours on Earth [Серии 1-2 из 2] (Джеймс Хонейборн / James Honeyborne) [2013 г., Документальный, флора, фауна, SATRip] Dub (Видеофильм ТВ) Один 777 999 MB
BBC BBC: Таинственный мир гормонов / The Fantastical World of Hormones with Professor John Wass (Джеймс Сенди / James Sandy) [2014 г., Документальный, научно-познавательный, исследование, HDTVRip 720p] skorpionN 1.75 GB
History History: Большая история / Big History (Джеймс Грант Голдин / James Grant Goldin) [2013, Документально-постановочный, история, HDTVRip 720p] TorrentFilm 13.56 GB
Viasat History Viasat History: Загадочные авиакатастрофы Второй Мировой войны / WW II: Air Crash Detectives [серии 1-6 из 6] (Джеймс Фловер) [2014 г., Документальный, авиация, исторический, исследование, SATRip] skorpionN 3.69 GB
Флора и фауна [BBC] Британские времена года / The Great British Year [Серии 1-4 из 4х] (James Brickell / Джеймс Брикл) [2013, Научно-популярный, живая природа, HDTVRip] VO (CSS) [+ Original (Eng) + SUB RUS, SUB... reversefile 4.36 GB
Фильмы 2009 года Аватар / Avatar (Джеймс Кэмерон / James Cameron) [2009, США, Великобритания, фантастика, боевик, драма, приключения, BDRip] [Театральная версия] AVO (Горчаков) TorrentFilm 2.92 GB
Фильмы 2009 года Аватар / Avatar (Джеймс Кэмерон / James Cameron) [2009, США, Фантастика, боевик, драма, приключения, BDRip] [Расширенная версия / Extended Cut] Dub + Sub TorrentFilm 1.47 GB
Фильмы 2009 года Аватар / Avatar (Джеймс Кэмерон / James Cameron) [2009, США, фантастика, приключения, BDRip] [Extended Cut / Расширенная версия] Dub + Sub (Rus) reversefile 2.18 GB
Показать сообщения:    

Текущее время: Сегодня 02:09

Часовой пояс: GMT



Вы не можете начинать темы
Вы не можете отвечать на сообщения
Вы не можете редактировать свои сообщения
Вы не можете удалять свои сообщения
Вы не можете голосовать в опросах
Вы не можете прикреплять файлы к сообщениям
Вы не можете скачивать файлы