Джанго освобожденный / Django Unchained (2012) BDRip-AVC от R.G. HD-Films | 60 fps

 
Автор Сообщение

BOSS ®

Пол:

Стаж: 2 года 1 месяц

Сообщений: 3735

Откуда: ODESSA



Награды: 20 (Подробнее)

Top Keeper 3 (Количество: 1) Mega Releaser 3 (Количество: 1) Mega Seeder 5 (Количество: 1)
Торрент-статистика

Создавать темы 15-Фев-2016 16:50

[Цитировать]

-Название: Джанго освобожденный
Оригинальное название: Django Unchained
Год выпуска: 2012
Страна: США
Жанр: драма, вестерн, приключения, комедия
Продолжительность: 02:45:22
Перевод: Дубляж
Субтитры: русские (Форсированные), русские (Полные), английские (Полные)-Режиссер: Квентин Тарантино-В ролях: Джейми Фокс (Django), Кристоф Вальц (Dr. King Schultz), Леонардо ДиКаприо (Calvin Candie), Керри Вашингтон (Broomhilda von Shaft), Сэмюэл Л. Джексон (Stephen), Уолтон Гоггинс (Billy Crash), Деннис Кристофер (Leonide Moguy), Джеймс Римар (Butch Pooch / Ace Speck), Дон Джонсон (Big Daddy), Лора Кайюэтт (Lara Lee Candie-Fitzwilly), Майкл Паркс (The LeQuint Dickey Mining Co. Employee), Квентин Тарантино (The LeQuint Dickey Mining Co. Employee / Robert (Bag Head))-Описание:
Эксцентричный охотник за головами, также известный как «Дантист», промышляет отстрелом самых опасных преступников. Работенка пыльная, и без надежного помощника ему не обойтись. Но как найти такого и желательно не очень дорогого? Беглый раб по имени Джанго - прекрасная кандидатура. Правда, у нового помощника свои мотивы - кое с чем надо разобраться...-Рейтинг:

MPAA: R - Лицам до 17 лет обязательно присутствие взрослого-Качество: BDRip-AVC 60fps
Формат: MKV
Видео: AVC, 1024x424 (2.40:1), 2965 kbps, 59,940 fps, 0,114 bpp
Аудио: русский / AC3 / 5.1 / 48 kHz / 448 kbps / 16 bit
Навигация по главам: есть- -

ОтчетМедиаИнфо

General
Unique ID : 239288039368763409722388794511410648728 (0xB40533358522B80EAE64780737E8D698)
Format : Matroska
Format version : Version 4 / Version 2
File size : 3.95 GiB
Duration : 2h 45mn
Overall bit rate : 3 416 Kbps
Movie name : Tiberiumsun69
Encoded date : UTC 2016-02-14 06:09:30
Writing application : mkvmerge v8.3.0 ('Over the Horizon') 64bit
Writing library : libebml v1.3.1 + libmatroska v1.4.2
Attachment : Yes
Video
ID : 1
Format : AVC
Format/Info : Advanced Video Codec
Format profile : High@L4.1
Format settings, CABAC : Yes
Format settings, ReFrames : 4 frames
Codec ID : V_MPEG4/ISO/AVC
Duration : 2h 45mn
Bit rate : 2 965 Kbps
Width : 1 024 pixels
Height : 424 pixels
Display aspect ratio : 2.40:1
Frame rate : 59.940 fps
Color space : YUV
Chroma subsampling : 4:2:0
Bit depth : 8 bits
Scan type : Progressive
Bits/(Pixel*Frame) : 0.114
Stream size : 3.35 GiB (85%)
Title : Tiberiumsun69
Writing library : x264 core 146 r2538 121396c
Encoding settings : cabac=1 / ref=3 / deblock=1:0:0 / analyse=0x3:0x113 / me=umh / subme=11 / psy=1 / psy_rd=1.00:0.10 / mixed_ref=1 / me_range=32 / chroma_me=1 / trellis=2 / 8x8dct=1 / cqm=0 / deadzone=21,11 / fast_pskip=0 / chroma_qp_offset=-3 / threads=12 / lookahead_threads=3 / sliced_threads=0 / nr=0 / decimate=1 / interlaced=0 / bluray_compat=0 / constrained_intra=0 / bframes=16 / b_pyramid=2 / b_adapt=2 / b_bias=0 / direct=3 / weightb=1 / open_gop=0 / weightp=2 / keyint=250 / keyint_min=25 / scenecut=40 / intra_refresh=0 / rc_lookahead=40 / rc=2pass / mbtree=1 / bitrate=2965 / ratetol=1.0 / qcomp=0.60 / qpmin=0 / qpmax=69 / qpstep=4 / cplxblur=20.0 / qblur=0.5 / vbv_maxrate=14000 / vbv_bufsize=14000 / nal_hrd=none / filler=0 / ip_ratio=1.40 / aq=1:1.00
Language : English
Default : Yes
Forced : No
Audio
ID : 2
Format : AC-3
Format/Info : Audio Coding 3
Mode extension : CM (complete main)
Codec ID : A_AC3
Duration : 2h 45mn
Bit rate mode : Constant
Bit rate : 448 Kbps
Channel(s) : 6 channels
Channel positions : Front: L C R, Side: L R, LFE
Sampling rate : 48.0 KHz
Bit depth : 16 bits
Compression mode : Lossy
Stream size : 530 MiB (13%)
Title : Дубляж
Language : Russian
Default : Yes
Forced : No
Text #1
ID : 3
Format : UTF-8
Codec ID : S_TEXT/UTF8
Codec ID/Info : UTF-8 Plain Text
Title : Форсированные
Language : Russian
Default : Yes
Forced : No
Text #2
ID : 4
Format : UTF-8
Codec ID : S_TEXT/UTF8
Codec ID/Info : UTF-8 Plain Text
Title : Полные
Language : Russian
Default : No
Forced : No
Text #3
ID : 5
Format : UTF-8
Codec ID : S_TEXT/UTF8
Codec ID/Info : UTF-8 Plain Text
Title : Полные
Language : English
Default : No
Forced : No
Menu
00:00:00.000 : en:Django Unchained
00:03:36.466 : en:1858 - Somewhere in Texas
00:12:47.933 : en:Daughtrey, TX
00:18:49.419 : en:Sheriff Bill Sharp
00:26:48.273 : en:Tennessee
00:31:44.527 : en:"You mean you wanna dress like that?"
00:40:27.133 : en:It's a Raid
00:46:05.512 : en:The Legend of Broomhilda
00:52:36.862 : en:Smitty Bacall
00:58:12.822 : en:Mississippi
01:02:20.319 : en:One-Eyed Charlie
01:12:13.495 : en:The Ride to Candieland
01:18:35.794 : en:The Trackers
01:26:08.037 : en:Candieland
01:34:49.642 : en:Dr. Schultz Meets Broomhilda
01:40:52.379 : en:"You know what I like."
01:45:34.036 : en:Eskimo Joe
01:50:01.094 : en:"You scarin' me."
01:55:03.980 : en:Old Ben
02:03:54.969 : en:"Please stop playing Beethoven."
02:08:14.103 : en:"Broomhilda Von Shaft, consider yourself a free woman."
02:14:14.379 : en:"Django, we got your woman."
02:17:28.990 : en:Castration Scene
02:22:32.544 : en:Lequint Dickey Mining Company
02:26:28.529 : en:"He weren't no slave."
02:33:00.462 : en:Django Says Goodbye to Dr. Schultz
02:35:41.999 : en:"In the sweet by and by."
02:41:30.931 : en:"They will call you the fastest gun in the south."

Скриншоты

Просьба к переливающим на другие сайты, в оформлении указывайте пожалуйста авторство группы
[Профиль] [ЛС]
Показать сообщения:    

Текущее время: Сегодня 02:20

Часовой пояс: GMT



Вы не можете начинать темы
Вы не можете отвечать на сообщения
Вы не можете редактировать свои сообщения
Вы не можете удалять свои сообщения
Вы не можете голосовать в опросах
Вы не можете прикреплять файлы к сообщениям
Вы не можете скачивать файлы