Детство Ратибора (Роман Давыдов) [1973, СССР, Рисованный мультфильм, WEBRip]

 
Автор Сообщение

TorrentFilm ®

Пол:

Стаж: 2 года

Сообщений: 7741



Награды: Нет

Торрент-статистика

Создавать темы 09-Фев-2016 00:08

[Цитировать]

Детство Ратибора
Страна: СССР
Жанр: Рисованный мультфильм
Продолжительность: 00:19:32
Год выпуска: 1973
Русские субтитры: нет
Режиссёр: Роман Давыдов
Роли озвучивали: Степан Бубнов, Иван Лапиков, Люсьена Овчинникова, Николай Сергеев, Мария Виноградова
Описание: По мотивам исторического романа В.Иванова "Русь изначальная"
«Издавна мы, греки, называем богатырей сих – россичами или руссами. Мужи Росские – доблестные воины. При набеге немного рабов взять удается от славян сих, ибо неволе предпочитают все они смерть»
Захария Ритор.
Доп. информация: «Союзмультфильм»
Художник-постановщик: В.Никитин
Оператор: Б.Котов
Композитор: В.Кривцов
Звукооператор:Г.Мартынюк
Релиз группы:
Качество: WEBRip
Формат: AVI
Видео: 640x480 (1.33:1), 25 fps, XviD MPEG-4 ~2096 kbps avg, 0.27 bit/pixel
Аудио: 48 kHz, AC3 Dolby Digital, 2/0 (L,R) ch, ~192.00 kbps avg
Субтитры: нет

Подробные технические данные

Format : AVIFormat/Info : Audio Video InterleaveFile size : 321 MiBDuration : 19mn 32sOverall bit rate : 2 299 KbpsWriting application : VirtualDubModRus 1.5.10.2 (build 2542/release)Copyright : Rutracker.orgComment : WEBRip by dvdss
VideoID : 0Format : MPEG-4 VisualFormat profile : Advanced Simple@L5Format settings, BVOP : 2Format settings, QPel : NoFormat settings, GMC : No warppointsFormat settings, Matrix : CustomCodec ID : XVIDCodec ID/Hint : XviDDuration : 19mn 32sBit rate : 2 097 KbpsWidth : 640 pixelsHeight : 480 pixelsDisplay aspect ratio : 5:4Original display aspect ratio : 4:3Frame rate : 25.000 fpsColor space : YUVChroma subsampling : 4:2:0Bit depth : 8 bitsScan type : ProgressiveCompression mode : LossyBits/(Pixel*Frame) : 0.273Stream size : 293 MiB (91%)Writing library : XviD 65
AudioID : 1Format : AC-3Format/Info : Audio Coding 3Mode extension : CM (complete main)Format settings, Endianness : BigCodec ID : 2000Duration : 19mn 32sBit rate mode : ConstantBit rate : 192 KbpsChannel(s) : 2 channelsChannel positions : Front: L RSampling rate : 48.0 KHzBit depth : 16 bitsCompression mode : LossyStream size : 26.8 MiB (8%)Alignment : Aligned on interleavesInterleave, duration : 40 ms (1.00 video frame)Interleave, preload duration : 512 ms
[Профиль] [ЛС]
Показать сообщения:    

Текущее время: Сегодня 12:28

Часовой пояс: GMT



Вы не можете начинать темы
Вы не можете отвечать на сообщения
Вы не можете редактировать свои сообщения
Вы не можете удалять свои сообщения
Вы не можете голосовать в опросах
Вы не можете прикреплять файлы к сообщениям
Вы не можете скачивать файлы