Детство лидера / The Childhood of a Leader (2015) WEB-DLRip 720р | звук с TS

 
Автор Сообщение

Russian Mafia ®

Пол:

Стаж: 1 год 8 месяцев

Сообщений: 4256



Награды: 10 (Подробнее)

Mega Seeder 2 (Количество: 1) Top Releaser 3 (Количество: 1) Top Releaser 2 (Количество: 1)
Торрент-статистика

Создавать темы 14-Сен-2016 19:30

[Цитировать]

Детство лидера / The Childhood of a Leader
Страна: Великобритания Франция Венгрия
Производство: Bron Capital Partners, Filmteam, Hepp Film, MACT Productions, Scope Pictures, Unanimous Entertainment
Год выпуска: 2015
Жанр: ужасы, драма, детектив
Продолжительность: 01:55:09
Режиссер: Брэйди Корбет
Авторы сценария: Брэйди Корбет, Мона Фастволд Лерче
В ролях: Роберт Паттинсон, Стэйси Мартин, Лиам Каннингэм, Беренис Бежо, Софи Кертис, Ребекка Дайан, Кэролайн Болтон, Лука Берковичи
Описание: 1918 год. Ещё немного, и фашизм заявит о себе в полный голос. Маленький Прескотт живёт с родителями во Франции. Его отец работает на правительство США, которое участвует в Версальских переговорах и не всегда действует в белых перчатках. То, чему ребенок становится свидетелем, оказывает решающее воздействие на формирование его личности, и на свет появляется монстр, не уступающий в своих тоталитарных амбициях самым известным тиранам ХХ столетия...

Перевод: Профессиональный (полное дублирование) | звук с TS
Субтитры: нет-Качество: WEB-DLRip 720р
Формат: МКV
Видео кодек: AVC
Аудио кодек: АС3
Видео: 1188x720 (5:3), 23.976 fps, MPEG-4 AVC ~4 020 kbps avg
Аудио: 48.0 kHz, AC3 Dolby Digital, 2/0 (L,R) ch, ~192 kbps
Дата премьеры (мир): 5 сентября 2015
Дата премьеры (РФ): 8 сентября 2016, «Вольга»

Media Info

General
Unique ID : 217544886651435499674661241249589850290 (0xA3A99F035C6163E08132F64D72CB70B2)
Complete name : The.Childhood.Of.A.Leader.2015.Dt.WEB-DL.72OP.mkv
Format : Matroska
Format version : Version 2
File size : 3.46 GiB
Duration : 1h 55mn
Overall bit rate mode : Variable
Overall bit rate : 4 297 Kbps
Encoded date : UTC 2016-09-14 16:23:56
Writing application : mkvmerge v8.3.0 ('Over the Horizon') 64bit
Writing library : libebml v1.3.1 + libmatroska v1.4.2
Video
ID : 1
Format : AVC
Format/Info : Advanced Video Codec
Format profile : High@L4.1
Format settings, CABAC : Yes
Format settings, ReFrames : 9 frames
Codec ID : V_MPEG4/ISO/AVC
Duration : 1h 55mn
Bit rate mode : Variable
Bit rate : 4 020 Kbps
Maximum bit rate : 16.4 Mbps
Width : 1 188 pixels
Height : 720 pixels
Display aspect ratio : 5:3
Frame rate mode : Constant
Frame rate : 23.976 fps
Standard : Component
Color space : YUV
Chroma subsampling : 4:2:0
Bit depth : 8 bits
Scan type : Progressive
Bits/(Pixel*Frame) : 0.196
Stream size : 3.23 GiB (94%)
Default : Yes
Forced : No
Color range : Limited
Color primaries : BT.709
Transfer characteristics : BT.709
Matrix coefficients : BT.709
Audio
ID : 2
Format : AC-3
Format/Info : Audio Coding 3
Mode extension : CM (complete main)
Format settings, Endianness : Big
Codec ID : A_AC3
Duration : 1h 55mn
Bit rate mode : Constant
Bit rate : 192 Kbps
Channel(s) : 2 channels
Channel positions : Front: L R
Sampling rate : 48.0 KHz
Bit depth : 16 bits
Compression mode : Lossy
Stream size : 158 MiB (4%)
Default : Yes
Forced : No

Скриншоты

[Профиль] [ЛС]
Показать сообщения:    

Текущее время: Сегодня 20:06

Часовой пояс: GMT



Вы не можете начинать темы
Вы не можете отвечать на сообщения
Вы не можете редактировать свои сообщения
Вы не можете удалять свои сообщения
Вы не можете голосовать в опросах
Вы не можете прикреплять файлы к сообщениям
Вы не можете скачивать файлы