Детство лидера / The Childhood of a Leader (2015) WEB-DLRip | звук с TS

 
Автор Сообщение

Russian Mafia ®

Пол:

Стаж: 1 год 8 месяцев

Сообщений: 4255



Награды: 10 (Подробнее)

За внесенный вклад в развитие сайта (Количество: 1) Top Releaser 4 (Количество: 1) Top Releaser 2 (Количество: 1)
Торрент-статистика

Создавать темы 14-Сен-2016 19:30

[Цитировать]

Детство лидера / The Childhood of a Leader
Страна: Великобритания Франция Венгрия
Производство: Bron Capital Partners, Filmteam, Hepp Film, MACT Productions, Scope Pictures, Unanimous Entertainment
Год выпуска: 2015
Жанр: ужасы, драма, детектив
Продолжительность: 01:55:09
Режиссер: Брэйди Корбет
Авторы сценария: Брэйди Корбет, Мона Фастволд Лерче
В ролях: Роберт Паттинсон, Стэйси Мартин, Лиам Каннингэм, Беренис Бежо, Софи Кертис, Ребекка Дайан, Кэролайн Болтон, Лука Берковичи
Описание: 1918 год. Ещё немного, и фашизм заявит о себе в полный голос. Маленький Прескотт живёт с родителями во Франции. Его отец работает на правительство США, которое участвует в Версальских переговорах и не всегда действует в белых перчатках. То, чему ребенок становится свидетелем, оказывает решающее воздействие на формирование его личности, и на свет появляется монстр, не уступающий в своих тоталитарных амбициях самым известным тиранам ХХ столетия...

Перевод: Профессиональный (полное дублирование) | звук с TS
Субтитры: нет-Качество: WEB-DLRip
Формат: АVI
Видео кодек: XviD
Аудио кодек: АС3
Видео: 720x432 (5:3), 23.976 fps, XviD ~1 539 kbps avg
Аудио: 48.0 kHz, AC3 Dolby Digital, 2/0 (L,R) ch, ~192 kbps
Дата премьеры (мир): 5 сентября 2015
Дата премьеры (РФ): 8 сентября 2016, «Вольга»

Media Info

General
General
Complete name : The.Childhood.Of.A.Leader.2015.Dt.WEB-DLRip.14OOMB.avi
Format : AVI
Format/Info : Audio Video Interleave
File size : 1.46 GiB
Duration : 1h 55mn
Overall bit rate : 1 811 Kbps
Writing application : VirtualDubMod 1.5.10.2 (build 2540/release)
Writing library : VirtualDubMod build 2540/release
Video
ID : 0
Format : MPEG-4 Visual
Format profile : Advanced Simple@L5
Format settings, BVOP : 2
Format settings, QPel : No
Format settings, GMC : No warppoints
Format settings, Matrix : Custom
Codec ID : XVID
Codec ID/Hint : XviD
Duration : 1h 55mn
Bit rate : 1 539 Kbps
Width : 720 pixels
Height : 432 pixels
Display aspect ratio : 5:3
Frame rate : 23.976 fps
Color space : YUV
Chroma subsampling : 4:2:0
Bit depth : 8 bits
Scan type : Progressive
Compression mode : Lossy
Bits/(Pixel*Frame) : 0.206
Stream size : 1.24 GiB (85%)
Writing library : XviD 1.2.1 (UTC 2008-12-04)
Audio
ID : 1
Format : AC-3
Format/Info : Audio Coding 3
Mode extension : CM (complete main)
Format settings, Endianness : Big
Codec ID : 2000
Duration : 1h 55mn
Bit rate mode : Constant
Bit rate : 192 Kbps
Channel(s) : 2 channels
Channel positions : Front: L R
Sampling rate : 48.0 KHz
Bit depth : 16 bits
Compression mode : Lossy
Stream size : 158 MiB (11%)
Alignment : Split accross interleaves

Скриншоты

[Профиль] [ЛС]
Показать сообщения:    

Текущее время: Сегодня 18:14

Часовой пояс: GMT



Вы не можете начинать темы
Вы не можете отвечать на сообщения
Вы не можете редактировать свои сообщения
Вы не можете удалять свои сообщения
Вы не можете голосовать в опросах
Вы не можете прикреплять файлы к сообщениям
Вы не можете скачивать файлы