Детство Бемби (Наталья Бондарчук) [1985, СССР, Сказка, DVD5]

 
Автор Сообщение

TorrentFilm ®

Пол:

Стаж: 2 года

Сообщений: 7741



Награды: Нет

Торрент-статистика

Создавать темы 01-Янв-2016 00:06

[Цитировать]

Детство Бемби
Страна: СССР
Студия: Киностудия им. М.Горького
Жанр: Сказка
Год выпуска: 1985
Продолжительность: 79 мин
Перевод: Не требуется
Cубтитры: нет
Режиссер: Наталья Бондарчук
В ролях: Николай Бурляев, Наталья Бондарчук, Мариес Лиепа, Галина Беляева, Лев Дуров, Ваня Бурляев, Катя Лычева, Инна Макарова, Ильзе Лиепа
Описание: Экранизация первой части сказки Феликса Зальтена "Бемби".
Много чудесных открытий и опасных приключений ждет олененка Бемби в лесной стране. Он узнает, что лучшая защита для оленей - прошлогодняя листва! Что голубая тропка - для тех, кто любит крылья, а верхняя - для белок! Что в речке живут рыбки, похожие на улыбки, прекрасные цветы могут летать, а крошка енот живет без забот! Добрый и храбрый олененок подружится со старым деревом и мудрым филином, выполнит давнюю мечту змеи, поможет зайчонку найти нового папу и ...
Впрочем,.. обо всем об этом и о многом другом, не менее интересном, вы узнаете, посмотрев эту замечательную лесную сказку! Изумительно снятые кадры природы и жизни зверей (животные Крымского, Азово-Сивашского заповедников, Национального парка "Гауя") - несомненно достоинства фильма, равно как и изящно выстроенный сюжет (сценаристы - известный писатель Юрий Нагибин и актриса Наталья Бондарчук), замечательные костюмы по эскизам Вячеслава Зайцева и блестящий состав исполнителей (актеры Инна Макарова, Лев Дуров, Николай Бурляев, выдающиеся артисты балета Мариес Лиепа, Гедиминас Таранда, удивительно артистичные юные Ваня Бурляев и самая известная девочка СССР начала 80-х, сменившая на посту посла доброй воли американку Саманту Смит, Катя Лычева).
Издание: ООО "ДиВиДи ЭКСПО", 2005 (RUSCICO) отредактировал Нордер
Меню: Русское, статичное, озвученное
Сэмпл: http://multi-up.com/728881
Тип релиза: DVD5
Контейнер: DVD-Video
Видео: MPEG2 PAL 4:3 720x576 VBR ~ 6490 Kbps 25 fps
Аудио: Russian Dolby AC3 2 ch 48.0 KHz 192 Kbps

DVDInfo

Title:
Size: 4.04 Gb ( 4 238 474,00 KBytes ) - DVD-5
Enabled regions: 1, 2, 3, 4, 5, 6
VTS_01 :
Play Length: 00:00:10
Video: PAL 4:3 (720x576) VBR
VTS_02 :
Play Length: 00:00:22
Video: PAL 4:3 (720x576) VBR
Audio:
Not specified (Dolby AC3, 6 ch)
VTS_03 :
Play Length: 01:16:27
Video: PAL 4:3 (720x576) VBR
Audio:
Russian (Dolby AC3, 2 ch)
VTS_04 :
Play Length: 00:02:23
Video: PAL 4:3 (720x576) VBR
Audio:
Russian (Dolby AC3, 3 ch)
* Menus Information *
VIDEO_TS Menu
Video:
PAL 4:3 (720x576) VBR
English Language Unit :
Title Menu
VTS_01 Menu
Video:
PAL 4:3 (720x576) VBR
Audio:
Not specified (Dolby AC3, 6 ch)
English Language Unit :
Root Menu
VTS_02 Menu
Video:
PAL 4:3 (720x576) VBR
English Language Unit :
Root Menu
VTS_03 Menu
Video:
PAL 4:3 (720x576) VBR
English Language Unit :
Root Menu
VTS_04 Menu
Video:
PAL 4:3 (720x576) VBR
English Language Unit :
Root Menu

MediaInfo

General
Complete name : D:\Videos\BAMBIS_CHILDHOOD\BAMBIS_CHILDHOOD.torrent
File size : 11.5 KiB
General
Complete name : D:\Videos\BAMBIS_CHILDHOOD\VIDEO_TS\VIDEO_TS.BUP
Format : DVD Video
Format profile : Menu
File size : 16.0 KiB
Overall bit rate mode : Variable
Video
ID : 224 (0xE0)
Format : MPEG Video
Format version : Version 2
Bit rate mode : Variable
Width : 720 pixels
Height : 576 pixels
Display aspect ratio : 4:3
Frame rate : 25.000 fps
Standard : PAL
Compression mode : Lossy
Text
Format : RLE
Format/Info : Run-length encoding
Bit depth : 2 bits
General
Complete name : D:\Videos\BAMBIS_CHILDHOOD\VIDEO_TS\VIDEO_TS.IFO
Format : DVD Video
Format profile : Menu
File size : 16.0 KiB
Overall bit rate mode : Variable
Video
ID : 224 (0xE0)
Format : MPEG Video
Format version : Version 2
Bit rate mode : Variable
Width : 720 pixels
Height : 576 pixels
Display aspect ratio : 4:3
Frame rate : 25.000 fps
Standard : PAL
Compression mode : Lossy
Text
Format : RLE
Format/Info : Run-length encoding
Bit depth : 2 bits
General
Complete name : D:\Videos\BAMBIS_CHILDHOOD\VIDEO_TS\VIDEO_TS.VOB
Format : MPEG-PS
File size : 154 KiB
Duration : 520ms
Overall bit rate : 2 426 Kbps
Video
ID : 224 (0xE0)
Format : MPEG Video
Format version : Version 2
Format profile : Main@Main
Format settings, BVOP : Yes
Format settings, Matrix : Custom
Duration : 520ms
Maximum bit rate : 2 000 Kbps
Width : 720 pixels
Height : 576 pixels
Display aspect ratio : 4:3
Frame rate : 25.000 fps
Standard : PAL
Color space : YUV
Chroma subsampling : 4:2:0
Bit depth : 8 bits
Scan type : Interlaced
Scan order : Top Field First
Compression mode : Lossy
Text
ID : 189 (0xBD)-32 (0x20)
Format : RLE
Format/Info : Run-length encoding
Muxing mode : DVD-Video
Delay relative to video : -80ms
Menu
General
Complete name : D:\Videos\BAMBIS_CHILDHOOD\VIDEO_TS\VTS_01_0.BUP
Format : DVD Video
Format profile : Program
File size : 26.0 KiB
Duration : 10s 0ms
Overall bit rate mode : Variable
Overall bit rate : 21.3 Kbps
Video
ID : 224 (0xE0)
Format : MPEG Video
Format version : Version 2
Duration : 10s 0ms
Bit rate mode : Variable
Width : 720 pixels
Height : 576 pixels
Display aspect ratio : 4:3
Frame rate : 25.000 fps
Standard : PAL
Compression mode : Lossy
Audio #1
Format : AC-3
Format/Info : Audio Coding 3
Duration : 10s 0ms
Channel(s) : 6 channels
Sampling rate : 48.0 KHz
Compression mode : Lossy
Language : English
Audio #2
Format : AC-3
Format/Info : Audio Coding 3
Duration : 10s 0ms
Channel(s) : 6 channels
Sampling rate : 48.0 KHz
Compression mode : Lossy
Language : English
Audio #3
Format : AC-3
Format/Info : Audio Coding 3
Duration : 10s 0ms
Channel(s) : 6 channels
Sampling rate : 48.0 KHz
Compression mode : Lossy
Language : English
Audio #4
Format : AC-3
Format/Info : Audio Coding 3
Duration : 10s 0ms
Channel(s) : 6 channels
Sampling rate : 48.0 KHz
Compression mode : Lossy
Language : English
Audio #5
Format : AC-3
Format/Info : Audio Coding 3
Duration : 10s 0ms
Channel(s) : 6 channels
Sampling rate : 48.0 KHz
Compression mode : Lossy
Language : English
Audio #6
Format : AC-3
Format/Info : Audio Coding 3
Duration : 10s 0ms
Channel(s) : 6 channels
Sampling rate : 48.0 KHz
Compression mode : Lossy
Language : English
Audio #7
Format : AC-3
Format/Info : Audio Coding 3
Duration : 10s 0ms
Channel(s) : 6 channels
Sampling rate : 48.0 KHz
Compression mode : Lossy
Language : English
Audio #8
Format : AC-3
Format/Info : Audio Coding 3
Duration : 10s 0ms
Channel(s) : 6 channels
Sampling rate : 48.0 KHz
Compression mode : Lossy
Language : English
Text #1
Format : RLE
Format/Info : Run-length encoding
Bit depth : 2 bits
Text #2
Format : RLE
Format/Info : Run-length encoding
Bit depth : 2 bits
Text #3
Format : RLE
Format/Info : Run-length encoding
Bit depth : 2 bits
Text #4
Format : RLE
Format/Info : Run-length encoding
Bit depth : 2 bits
Text #5
Format : RLE
Format/Info : Run-length encoding
Bit depth : 2 bits
Text #6
Format : RLE
Format/Info : Run-length encoding
Bit depth : 2 bits
Text #7
Format : RLE
Format/Info : Run-length encoding
Bit depth : 2 bits
Text #8
Format : RLE
Format/Info : Run-length encoding
Bit depth : 2 bits
Text #9
Format : RLE
Format/Info : Run-length encoding
Bit depth : 2 bits
Text #10
Format : RLE
Format/Info : Run-length encoding
Bit depth : 2 bits
Text #11
Format : RLE
Format/Info : Run-length encoding
Bit depth : 2 bits
Text #12
Format : RLE
Format/Info : Run-length encoding
Bit depth : 2 bits
Text #13
Format : RLE
Format/Info : Run-length encoding
Bit depth : 2 bits
Text #14
Format : RLE
Format/Info : Run-length encoding
Bit depth : 2 bits
Text #15
Format : RLE
Format/Info : Run-length encoding
Bit depth : 2 bits
Text #16
Format : RLE
Format/Info : Run-length encoding
Bit depth : 2 bits
Text #17
Format : RLE
Format/Info : Run-length encoding
Bit depth : 2 bits
Text #18
Format : RLE
Format/Info : Run-length encoding
Bit depth : 2 bits
Text #19
Format : RLE
Format/Info : Run-length encoding
Bit depth : 2 bits
Text #20
Format : RLE
Format/Info : Run-length encoding
Bit depth : 2 bits
Text #21
Format : RLE
Format/Info : Run-length encoding
Bit depth : 2 bits
Text #22
Format : RLE
Format/Info : Run-length encoding
Bit depth : 2 bits
Text #23
Format : RLE
Format/Info : Run-length encoding
Bit depth : 2 bits
Text #24
Format : RLE
Format/Info : Run-length encoding
Bit depth : 2 bits
Text #25
Format : RLE
Format/Info : Run-length encoding
Bit depth : 2 bits
Text #26
Format : RLE
Format/Info : Run-length encoding
Bit depth : 2 bits
Text #27
Format : RLE
Format/Info : Run-length encoding
Bit depth : 2 bits
Text #28
Format : RLE
Format/Info : Run-length encoding
Bit depth : 2 bits
Text #29
Format : RLE
Format/Info : Run-length encoding
Bit depth : 2 bits
Text #30
Format : RLE
Format/Info : Run-length encoding
Bit depth : 2 bits
Text #31
Format : RLE
Format/Info : Run-length encoding
Bit depth : 2 bits
Text #32
Format : RLE
Format/Info : Run-length encoding
Bit depth : 2 bits
Menu
Duration : 10s 0ms
00:00:00.000 : Chapter 1
General
Complete name : D:\Videos\BAMBIS_CHILDHOOD\VIDEO_TS\VTS_01_0.IFO
Format : DVD Video
Format profile : Program
File size : 26.0 KiB
Duration : 10s 0ms
Overall bit rate mode : Variable
Overall bit rate : 21.3 Kbps
Video
ID : 224 (0xE0)
Format : MPEG Video
Format version : Version 2
Duration : 10s 0ms
Bit rate mode : Variable
Width : 720 pixels
Height : 576 pixels
Display aspect ratio : 4:3
Frame rate : 25.000 fps
Standard : PAL
Compression mode : Lossy
Audio #1
Format : AC-3
Format/Info : Audio Coding 3
Duration : 10s 0ms
Channel(s) : 6 channels
Sampling rate : 48.0 KHz
Compression mode : Lossy
Language : English
Audio #2
Format : AC-3
Format/Info : Audio Coding 3
Duration : 10s 0ms
Channel(s) : 6 channels
Sampling rate : 48.0 KHz
Compression mode : Lossy
Language : English
Audio #3
Format : AC-3
Format/Info : Audio Coding 3
Duration : 10s 0ms
Channel(s) : 6 channels
Sampling rate : 48.0 KHz
Compression mode : Lossy
Language : English
Audio #4
Format : AC-3
Format/Info : Audio Coding 3
Duration : 10s 0ms
Channel(s) : 6 channels
Sampling rate : 48.0 KHz
Compression mode : Lossy
Language : English
Audio #5
Format : AC-3
Format/Info : Audio Coding 3
Duration : 10s 0ms
Channel(s) : 6 channels
Sampling rate : 48.0 KHz
Compression mode : Lossy
Language : English
Audio #6
Format : AC-3
Format/Info : Audio Coding 3
Duration : 10s 0ms
Channel(s) : 6 channels
Sampling rate : 48.0 KHz
Compression mode : Lossy
Language : English
Audio #7
Format : AC-3
Format/Info : Audio Coding 3
Duration : 10s 0ms
Channel(s) : 6 channels
Sampling rate : 48.0 KHz
Compression mode : Lossy
Language : English
Audio #8
Format : AC-3
Format/Info : Audio Coding 3
Duration : 10s 0ms
Channel(s) : 6 channels
Sampling rate : 48.0 KHz
Compression mode : Lossy
Language : English
Text #1
Format : RLE
Format/Info : Run-length encoding
Bit depth : 2 bits
Text #2
Format : RLE
Format/Info : Run-length encoding
Bit depth : 2 bits
Text #3
Format : RLE
Format/Info : Run-length encoding
Bit depth : 2 bits
Text #4
Format : RLE
Format/Info : Run-length encoding
Bit depth : 2 bits
Text #5
Format : RLE
Format/Info : Run-length encoding
Bit depth : 2 bits
Text #6
Format : RLE
Format/Info : Run-length encoding
Bit depth : 2 bits
Text #7
Format : RLE
Format/Info : Run-length encoding
Bit depth : 2 bits
Text #8
Format : RLE
Format/Info : Run-length encoding
Bit depth : 2 bits
Text #9
Format : RLE
Format/Info : Run-length encoding
Bit depth : 2 bits
Text #10
Format : RLE
Format/Info : Run-length encoding
Bit depth : 2 bits
Text #11
Format : RLE
Format/Info : Run-length encoding
Bit depth : 2 bits
Text #12
Format : RLE
Format/Info : Run-length encoding
Bit depth : 2 bits
Text #13
Format : RLE
Format/Info : Run-length encoding
Bit depth : 2 bits
Text #14
Format : RLE
Format/Info : Run-length encoding
Bit depth : 2 bits
Text #15
Format : RLE
Format/Info : Run-length encoding
Bit depth : 2 bits
Text #16
Format : RLE
Format/Info : Run-length encoding
Bit depth : 2 bits
Text #17
Format : RLE
Format/Info : Run-length encoding
Bit depth : 2 bits
Text #18
Format : RLE
Format/Info : Run-length encoding
Bit depth : 2 bits
Text #19
Format : RLE
Format/Info : Run-length encoding
Bit depth : 2 bits
Text #20
Format : RLE
Format/Info : Run-length encoding
Bit depth : 2 bits
Text #21
Format : RLE
Format/Info : Run-length encoding
Bit depth : 2 bits
Text #22
Format : RLE
Format/Info : Run-length encoding
Bit depth : 2 bits
Text #23
Format : RLE
Format/Info : Run-length encoding
Bit depth : 2 bits
Text #24
Format : RLE
Format/Info : Run-length encoding
Bit depth : 2 bits
Text #25
Format : RLE
Format/Info : Run-length encoding
Bit depth : 2 bits
Text #26
Format : RLE
Format/Info : Run-length encoding
Bit depth : 2 bits
Text #27
Format : RLE
Format/Info : Run-length encoding
Bit depth : 2 bits
Text #28
Format : RLE
Format/Info : Run-length encoding
Bit depth : 2 bits
Text #29
Format : RLE
Format/Info : Run-length encoding
Bit depth : 2 bits
Text #30
Format : RLE
Format/Info : Run-length encoding
Bit depth : 2 bits
Text #31
Format : RLE
Format/Info : Run-length encoding
Bit depth : 2 bits
Text #32
Format : RLE
Format/Info : Run-length encoding
Bit depth : 2 bits
Menu
Duration : 10s 0ms
00:00:00.000 : Chapter 1
General
Complete name : D:\Videos\BAMBIS_CHILDHOOD\VIDEO_TS\VTS_01_0.VOB
Format : MPEG-PS
File size : 5.11 MiB
Duration : 19s 392ms
Overall bit rate mode : Variable
Overall bit rate : 2 209 Kbps
Video
ID : 224 (0xE0)
Format : MPEG Video
Format version : Version 2
Format profile : Main@Main
Format settings, BVOP : No
Format settings, Matrix : Custom
Format settings, GOP : N=1
Duration : 40ms
Bit rate mode : Variable
Bit rate : 1 717 Kbps
Maximum bit rate : 8 000 Kbps
Width : 720 pixels
Height : 576 pixels
Display aspect ratio : 4:3
Frame rate : 25.000 fps
Standard : PAL
Color space : YUV
Chroma subsampling : 4:2:0
Bit depth : 8 bits
Scan type : Progressive
Scan order : Top Field First
Compression mode : Lossy
Bits/(Pixel*Frame) : 0.166
Stream size : 8.38 KiB (0%)
Color primaries : BT.470-2 System B, BT.470-2 System G
Transfer characteristics : BT.470-2 System B, BT.470-2 System G
Matrix coefficients : BT.470-2 System B, BT.470-2 System G
Audio
ID : 189 (0xBD)-128 (0x80)
Format : AC-3
Format/Info : Audio Coding 3
Mode extension : CM (complete main)
Format settings, Endianness : Big
Muxing mode : DVD-Video
Duration : 19s 392ms
Bit rate mode : Constant
Bit rate : 448 Kbps
Channel(s) : 6 channels
Channel positions : Front: L C R, Side: L R, LFE
Sampling rate : 48.0 KHz
Bit depth : 16 bits
Compression mode : Lossy
Stream size : 1.04 MiB (20%)
Text
ID : 189 (0xBD)-32 (0x20)
Format : RLE
Format/Info : Run-length encoding
Muxing mode : DVD-Video
Menu
General
Complete name : D:\Videos\BAMBIS_CHILDHOOD\VIDEO_TS\VTS_01_1.VOB
Format : MPEG-PS
File size : 6.07 MiB
Duration : 10s 0ms
Overall bit rate : 5 092 Kbps
Video
ID : 224 (0xE0)
Format : MPEG Video
Format version : Version 2
Format profile : Main@Main
Format settings, BVOP : Yes
Format settings, Matrix : Default
Format settings, GOP : M=3, N=12
Duration : 10s 0ms
Bit rate : 5 000 Kbps
Width : 720 pixels
Height : 576 pixels
Display aspect ratio : 4:3
Frame rate : 25.000 fps
Standard : PAL
Color space : YUV
Chroma subsampling : 4:2:0
Bit depth : 8 bits
Scan type : Progressive
Compression mode : Lossy
Bits/(Pixel*Frame) : 0.482
Stream size : 5.95 MiB (98%)
Color primaries : BT.470-2 System B, BT.470-2 System G
Transfer characteristics : BT.470-2 System B, BT.470-2 System G
Matrix coefficients : BT.470-2 System B, BT.470-2 System G
Menu
General
Complete name : D:\Videos\BAMBIS_CHILDHOOD\VIDEO_TS\VTS_02_0.BUP
Format : DVD Video
Format profile : Program
File size : 18.0 KiB
Duration : 22s 80ms
Overall bit rate mode : Variable
Overall bit rate : 6 678 bps
Video
ID : 224 (0xE0)
Format : MPEG Video
Format version : Version 2
Duration : 22s 80ms
Bit rate mode : Variable
Width : 720 pixels
Height : 576 pixels
Display aspect ratio : 4:3
Frame rate : 25.000 fps
Standard : PAL
Compression mode : Lossy
Audio
ID : 128 (0x80)
Format : AC-3
Format/Info : Audio Coding 3
Duration : 22s 80ms
Channel(s) : 6 channels
Sampling rate : 48.0 KHz
Compression mode : Lossy
Menu
Duration : 22s 80ms
00:00:00.000 : Chapter 1
List (Audio) : 0
General
Complete name : D:\Videos\BAMBIS_CHILDHOOD\VIDEO_TS\VTS_02_0.IFO
Format : DVD Video
Format profile : Program
File size : 18.0 KiB
Duration : 22s 80ms
Overall bit rate mode : Variable
Overall bit rate : 6 678 bps
Video
ID : 224 (0xE0)
Format : MPEG Video
Format version : Version 2
Duration : 22s 80ms
Bit rate mode : Variable
Width : 720 pixels
Height : 576 pixels
Display aspect ratio : 4:3
Frame rate : 25.000 fps
Standard : PAL
Compression mode : Lossy
Audio
ID : 128 (0x80)
Format : AC-3
Format/Info : Audio Coding 3
Duration : 22s 80ms
Channel(s) : 6 channels
Sampling rate : 48.0 KHz
Compression mode : Lossy
Menu
Duration : 22s 80ms
00:00:00.000 : Chapter 1
List (Audio) : 0
General
Complete name : D:\Videos\BAMBIS_CHILDHOOD\VIDEO_TS\VTS_02_0.VOB
Format : MPEG-PS
File size : 154 KiB
Duration : 520ms
Overall bit rate : 2 426 Kbps
Video
ID : 224 (0xE0)
Format : MPEG Video
Format version : Version 2
Format profile : Main@Main
Format settings, BVOP : Yes
Format settings, Matrix : Custom
Duration : 520ms
Maximum bit rate : 2 000 Kbps
Width : 720 pixels
Height : 576 pixels
Display aspect ratio : 4:3
Frame rate : 25.000 fps
Standard : PAL
Color space : YUV
Chroma subsampling : 4:2:0
Bit depth : 8 bits
Scan type : Interlaced
Scan order : Top Field First
Compression mode : Lossy
Text
ID : 189 (0xBD)-32 (0x20)
Format : RLE
Format/Info : Run-length encoding
Muxing mode : DVD-Video
Delay relative to video : -80ms
Menu
General
Complete name : D:\Videos\BAMBIS_CHILDHOOD\VIDEO_TS\VTS_02_1.VOB
Format : MPEG-PS
File size : 14.6 MiB
Duration : 22s 0ms
Overall bit rate : 5 559 Kbps
Video
ID : 224 (0xE0)
Format : MPEG Video
Format version : Version 2
Format profile : Main@Main
Format settings, BVOP : Yes
Format settings, Matrix : Custom
Format settings, GOP : M=3, N=12
Duration : 22s 0ms
Bit rate : 5 000 Kbps
Width : 720 pixels
Height : 576 pixels
Display aspect ratio : 4:3
Frame rate : 25.000 fps
Standard : PAL
Color space : YUV
Chroma subsampling : 4:2:0
Bit depth : 8 bits
Scan type : Interlaced
Scan order : Top Field First
Compression mode : Lossy
Bits/(Pixel*Frame) : 0.482
Stream size : 13.1 MiB (90%)
Audio
ID : 189 (0xBD)-128 (0x80)
Format : AC-3
Format/Info : Audio Coding 3
Mode extension : CM (complete main)
Format settings, Endianness : Big
Muxing mode : DVD-Video
Duration : 21s 504ms
Bit rate mode : Constant
Bit rate : 448 Kbps
Channel(s) : 6 channels
Channel positions : Front: L C R, Side: L R, LFE
Sampling rate : 48.0 KHz
Bit depth : 16 bits
Compression mode : Lossy
Delay relative to video : -80ms
Stream size : 1.15 MiB (8%)
Menu
General
Complete name : D:\Videos\BAMBIS_CHILDHOOD\VIDEO_TS\VTS_03_0.BUP
Format : DVD Video
Format profile : Program
File size : 52.0 KiB
Duration : 1h 16mn
Overall bit rate mode : Variable
Overall bit rate : 93 bps
Video
ID : 224 (0xE0)
Format : MPEG Video
Format version : Version 2
Duration : 1h 16mn
Bit rate mode : Variable
Width : 720 pixels
Height : 576 pixels
Display aspect ratio : 4:3
Frame rate : 25.000 fps
Standard : PAL
Compression mode : Lossy
Audio
ID : 128 (0x80)
Format : AC-3
Format/Info : Audio Coding 3
Duration : 1h 16mn
Channel(s) : 2 channels
Sampling rate : 48.0 KHz
Compression mode : Lossy
Language : Russian
Menu
Duration : 1h 16mn
00:00:00.000 : Chapter 1
00:04:43.200 : Chapter 2
00:09:32.040 : Chapter 3
00:15:06.720 : Chapter 4
00:24:16.360 : Chapter 5
00:26:53.400 : Chapter 6
00:31:03.440 : Chapter 7
00:34:55.000 : Chapter 8
00:47:13.360 : Chapter 9
00:55:02.800 : Chapter 10
01:00:28.640 : Chapter 11
01:05:24.000 : Chapter 12
List (Audio) : 0
General
Complete name : D:\Videos\BAMBIS_CHILDHOOD\VIDEO_TS\VTS_03_0.IFO
Format : DVD Video
Format profile : Program
File size : 52.0 KiB
Duration : 1h 16mn
Overall bit rate mode : Variable
Overall bit rate : 93 bps
Video
ID : 224 (0xE0)
Format : MPEG Video
Format version : Version 2
Duration : 1h 16mn
Bit rate mode : Variable
Width : 720 pixels
Height : 576 pixels
Display aspect ratio : 4:3
Frame rate : 25.000 fps
Standard : PAL
Compression mode : Lossy
Audio
ID : 128 (0x80)
Format : AC-3
Format/Info : Audio Coding 3
Duration : 1h 16mn
Channel(s) : 2 channels
Sampling rate : 48.0 KHz
Compression mode : Lossy
Language : Russian
Menu
Duration : 1h 16mn
00:00:00.000 : Chapter 1
00:04:43.200 : Chapter 2
00:09:32.040 : Chapter 3
00:15:06.720 : Chapter 4
00:24:16.360 : Chapter 5
00:26:53.400 : Chapter 6
00:31:03.440 : Chapter 7
00:34:55.000 : Chapter 8
00:47:13.360 : Chapter 9
00:55:02.800 : Chapter 10
01:00:28.640 : Chapter 11
01:05:24.000 : Chapter 12
List (Audio) : 0
General
Complete name : D:\Videos\BAMBIS_CHILDHOOD\VIDEO_TS\VTS_03_0.VOB
Format : MPEG-PS
File size : 154 KiB
Duration : 520ms
Overall bit rate : 2 426 Kbps
Video
ID : 224 (0xE0)
Format : MPEG Video
Format version : Version 2
Format profile : Main@Main
Format settings, BVOP : Yes
Format settings, Matrix : Custom
Duration : 520ms
Maximum bit rate : 2 000 Kbps
Width : 720 pixels
Height : 576 pixels
Display aspect ratio : 4:3
Frame rate : 25.000 fps
Standard : PAL
Color space : YUV
Chroma subsampling : 4:2:0
Bit depth : 8 bits
Scan type : Interlaced
Scan order : Top Field First
Compression mode : Lossy
Text
ID : 189 (0xBD)-32 (0x20)
Format : RLE
Format/Info : Run-length encoding
Muxing mode : DVD-Video
Delay relative to video : -80ms
Menu
General
Complete name : D:\Videos\BAMBIS_CHILDHOOD\VIDEO_TS\VTS_03_1.VOB
Format : MPEG-PS
File size : 1 024 MiB
Duration : 19mn 33s
Overall bit rate : 7 316 Kbps
Video
ID : 224 (0xE0)
Format : MPEG Video
Format version : Version 2
Format profile : Main@Main
Format settings, BVOP : Yes
Format settings, Matrix : Custom
Duration : 19mn 33s
Bit rate : 7 000 Kbps
Width : 720 pixels
Height : 576 pixels
Display aspect ratio : 4:3
Frame rate : 25.000 fps
Standard : PAL
Color space : YUV
Chroma subsampling : 4:2:0
Bit depth : 8 bits
Scan type : Interlaced
Scan order : Bottom Field First
Compression mode : Lossy
Bits/(Pixel*Frame) : 0.675
Stream size : 977 MiB (95%)
Audio
ID : 189 (0xBD)-128 (0x80)
Format : AC-3
Format/Info : Audio Coding 3
Mode extension : CM (complete main)
Format settings, Endianness : Big
Muxing mode : DVD-Video
Duration : 19mn 33s
Bit rate mode : Constant
Bit rate : 192 Kbps
Channel(s) : 2 channels
Channel positions : Front: L R
Sampling rate : 48.0 KHz
Bit depth : 16 bits
Compression mode : Lossy
Stream size : 26.9 MiB (3%)
Menu
General
Complete name : D:\Videos\BAMBIS_CHILDHOOD\VIDEO_TS\VTS_03_2.VOB
Format : MPEG-PS
File size : 1 024 MiB
Duration : 19mn 33s
Overall bit rate : 7 317 Kbps
Video
ID : 224 (0xE0)
Format : MPEG Video
Format version : Version 2
Format profile : Main@Main
Format settings, BVOP : Yes
Format settings, Matrix : Custom
Format settings, GOP : M=3, N=15
Duration : 19mn 33s
Bit rate : 7 000 Kbps
Width : 720 pixels
Height : 576 pixels
Display aspect ratio : 4:3
Frame rate : 25.000 fps
Standard : PAL
Color space : YUV
Chroma subsampling : 4:2:0
Bit depth : 8 bits
Scan type : Interlaced
Scan order : Bottom Field First
Compression mode : Lossy
Bits/(Pixel*Frame) : 0.675
Stream size : 976 MiB (95%)
Audio
ID : 189 (0xBD)-128 (0x80)
Format : AC-3
Format/Info : Audio Coding 3
Mode extension : CM (complete main)
Format settings, Endianness : Big
Muxing mode : DVD-Video
Duration : 19mn 33s
Bit rate mode : Constant
Bit rate : 192 Kbps
Channel(s) : 2 channels
Channel positions : Front: L R
Sampling rate : 48.0 KHz
Bit depth : 16 bits
Compression mode : Lossy
Delay relative to video : -616ms
Stream size : 26.9 MiB (3%)
Menu
General
Complete name : D:\Videos\BAMBIS_CHILDHOOD\VIDEO_TS\VTS_03_3.VOB
Format : MPEG-PS
File size : 1 024 MiB
Duration : 19mn 33s
Overall bit rate : 7 318 Kbps
Video
ID : 224 (0xE0)
Format : MPEG Video
Format version : Version 2
Format profile : Main@Main
Format settings, BVOP : Yes
Format settings, Matrix : Custom
Format settings, GOP : M=3, N=15
Duration : 19mn 33s
Bit rate : 7 000 Kbps
Width : 720 pixels
Height : 576 pixels
Display aspect ratio : 4:3
Frame rate : 25.000 fps
Standard : PAL
Color space : YUV
Chroma subsampling : 4:2:0
Bit depth : 8 bits
Scan type : Interlaced
Scan order : Bottom Field First
Compression mode : Lossy
Bits/(Pixel*Frame) : 0.675
Stream size : 976 MiB (95%)
Audio
ID : 189 (0xBD)-128 (0x80)
Format : AC-3
Format/Info : Audio Coding 3
Mode extension : CM (complete main)
Format settings, Endianness : Big
Muxing mode : DVD-Video
Duration : 19mn 33s
Bit rate mode : Constant
Bit rate : 192 Kbps
Channel(s) : 2 channels
Channel positions : Front: L R
Sampling rate : 48.0 KHz
Bit depth : 16 bits
Compression mode : Lossy
Delay relative to video : -552ms
Stream size : 26.9 MiB (3%)
Menu
General
Complete name : D:\Videos\BAMBIS_CHILDHOOD\VIDEO_TS\VTS_03_4.VOB
Format : MPEG-PS
File size : 930 MiB
Duration : 17mn 46s
Overall bit rate : 7 317 Kbps
Video
ID : 224 (0xE0)
Format : MPEG Video
Format version : Version 2
Format profile : Main@Main
Format settings, BVOP : Yes
Format settings, Matrix : Custom
Format settings, GOP : M=3, N=15
Duration : 17mn 46s
Bit rate : 7 000 Kbps
Width : 720 pixels
Height : 576 pixels
Display aspect ratio : 4:3
Frame rate : 25.000 fps
Standard : PAL
Color space : YUV
Chroma subsampling : 4:2:0
Bit depth : 8 bits
Scan type : Interlaced
Scan order : Bottom Field First
Compression mode : Lossy
Bits/(Pixel*Frame) : 0.675
Stream size : 887 MiB (95%)
Audio
ID : 189 (0xBD)-128 (0x80)
Format : AC-3
Format/Info : Audio Coding 3
Mode extension : CM (complete main)
Format settings, Endianness : Big
Muxing mode : DVD-Video
Duration : 17mn 46s
Bit rate mode : Constant
Bit rate : 192 Kbps
Channel(s) : 2 channels
Channel positions : Front: L R
Sampling rate : 48.0 KHz
Bit depth : 16 bits
Compression mode : Lossy
Delay relative to video : -264ms
Stream size : 24.4 MiB (3%)
Menu
General
Complete name : D:\Videos\BAMBIS_CHILDHOOD\VIDEO_TS\VTS_04_0.BUP
Format : DVD Video
Format profile : Program
File size : 18.0 KiB
Duration : 2mn 23s
Overall bit rate mode : Variable
Overall bit rate : 1 026 bps
Video
ID : 224 (0xE0)
Format : MPEG Video
Format version : Version 2
Duration : 2mn 23s
Bit rate mode : Variable
Width : 720 pixels
Height : 576 pixels
Display aspect ratio : 4:3
Frame rate : 25.000 fps
Standard : PAL
Compression mode : Lossy
Audio
ID : 128 (0x80)
Format : AC-3
Format/Info : Audio Coding 3
Duration : 2mn 23s
Channel(s) : 3 channels
Sampling rate : 48.0 KHz
Compression mode : Lossy
Language : Russian
Menu
Duration : 2mn 23s
00:00:00.000 : Chapter 1
List (Audio) : 0
General
Complete name : D:\Videos\BAMBIS_CHILDHOOD\VIDEO_TS\VTS_04_0.IFO
Format : DVD Video
Format profile : Program
File size : 18.0 KiB
Duration : 2mn 23s
Overall bit rate mode : Variable
Overall bit rate : 1 026 bps
Video
ID : 224 (0xE0)
Format : MPEG Video
Format version : Version 2
Duration : 2mn 23s
Bit rate mode : Variable
Width : 720 pixels
Height : 576 pixels
Display aspect ratio : 4:3
Frame rate : 25.000 fps
Standard : PAL
Compression mode : Lossy
Audio
ID : 128 (0x80)
Format : AC-3
Format/Info : Audio Coding 3
Duration : 2mn 23s
Channel(s) : 3 channels
Sampling rate : 48.0 KHz
Compression mode : Lossy
Language : Russian
Menu
Duration : 2mn 23s
00:00:00.000 : Chapter 1
List (Audio) : 0
General
Complete name : D:\Videos\BAMBIS_CHILDHOOD\VIDEO_TS\VTS_04_0.VOB
Format : MPEG-PS
File size : 154 KiB
Duration : 520ms
Overall bit rate : 2 426 Kbps
Video
ID : 224 (0xE0)
Format : MPEG Video
Format version : Version 2
Format profile : Main@Main
Format settings, BVOP : Yes
Format settings, Matrix : Custom
Duration : 520ms
Maximum bit rate : 2 000 Kbps
Width : 720 pixels
Height : 576 pixels
Display aspect ratio : 4:3
Frame rate : 25.000 fps
Standard : PAL
Color space : YUV
Chroma subsampling : 4:2:0
Bit depth : 8 bits
Scan type : Interlaced
Scan order : Top Field First
Compression mode : Lossy
Text
ID : 189 (0xBD)-32 (0x20)
Format : RLE
Format/Info : Run-length encoding
Muxing mode : DVD-Video
Delay relative to video : -80ms
Menu
General
Complete name : D:\Videos\BAMBIS_CHILDHOOD\VIDEO_TS\VTS_04_1.VOB
Format : MPEG-PS
File size : 111 MiB
Duration : 2mn 23s
Overall bit rate : 6 485 Kbps
Video
ID : 224 (0xE0)
Format : MPEG Video
Format version : Version 2
Format profile : Main@Main
Format settings, BVOP : Yes
Format settings, Matrix : Custom
Format settings, GOP : M=2, N=4
Duration : 2mn 23s
Bit rate : 6 000 Kbps
Width : 720 pixels
Height : 576 pixels
Display aspect ratio : 4:3
Frame rate : 25.000 fps
Standard : PAL
Color space : YUV
Chroma subsampling : 4:2:0
Bit depth : 8 bits
Scan type : Interlaced
Scan order : Top Field First
Compression mode : Lossy
Bits/(Pixel*Frame) : 0.579
Stream size : 103 MiB (93%)
Audio
ID : 189 (0xBD)-128 (0x80)
Format : AC-3
Format/Info : Audio Coding 3
Mode extension : CM (complete main)
Format settings, Endianness : Big
Muxing mode : DVD-Video
Duration : 2mn 23s
Bit rate mode : Constant
Bit rate : 320 Kbps
Channel(s) : 3 channels
Channel positions : Front: L C R
Sampling rate : 48.0 KHz
Bit depth : 16 bits
Compression mode : Lossy
Delay relative to video : -40ms
Stream size : 5.48 MiB (5%)
Menu
General
Complete name : D:\Videos\BAMBIS_CHILDHOOD\[torrentfilm.net].t4117238.torrent
File size : 11.7 KiB

Скриншоты меню

Скриншоты


[/spoiler
[Профиль] [ЛС]
Показать сообщения:    

Текущее время: Сегодня 22:40

Часовой пояс: GMT



Вы не можете начинать темы
Вы не можете отвечать на сообщения
Вы не можете редактировать свои сообщения
Вы не можете удалять свои сообщения
Вы не можете голосовать в опросах
Вы не можете прикреплять файлы к сообщениям
Вы не можете скачивать файлы