Детсадовский полицейский 2 / Kindergarten Cop 2 (Дон Майкл Пол) [2016 г., комедия, BDRip 720p] [DUB (Лицензия)]

 
Автор Сообщение

Bathory ®

Пол:

Стаж: 9 месяцев 2 дня

Сообщений: 169



Награды: 3 (Подробнее)

За внесенный вклад в развитие сайта (Количество: 1) Girls (Количество: 1) Друг (Количество: 1)
Торрент-статистика

Создавать темы 21-Май-2016 15:22

[Цитировать]

Детсадовский полицейский 2 / Kindergarten Cop 2- Информация о фильме
Название: Детсадовский полицейский 2
Оригинальное название: Kindergarten Cop 2
Год выхода: 2016
Жанр: комедия
Режиссер: Дон Майкл Пол
В ролях: Дольф Лундгрен, Фиона Врум, Сара Стрэйндж, Алекс Паунович, Билл Беллами, Андре Трикоте, Джоди Томпсон, Рафаэль Алехандро, Дарла Тейлор, Энид-Рэй Адамс
О фильме:
Главный герой и его верный напарник должны найти съемный накопитель с секретными данными, касающимися федеральной программы защиты свидетелей, который, по случайному стечению обстоятельств, оказывается в руках прелестной воспитательницы детского сада. Но ситуацию усугубляет то, что за этой информацией параллельно охотятся албанские бандиты…

Страна: США
Студия: Capital Arts Entertainment, Imagine Entertainment, Universal 1440 Entertainment
Продолжительность: 01:40:06
Перевод: Профессиональный (дублированный) [Лицензия R5]
Файл
Кодек: AVC
Качество: BDRip 720p
Видео: 1280x720, 5462 kbps, 23,976 fps, 0,247 Bits/(Pixel*Frame)
Звук:
1. AC3, 48 kHz, 6 ch, 384 kbps - RUS [DUB]
2. AC3, 48 kHz, 6 ch, 384 kbps - ENG [Original]
Субтитры: Английские

MI

General
Unique ID : 174476581115280004135656906203456503836 (0x8342F79B7ED75597B2E9F3EA7C02801C)
Complete name : F:\Kindergarten.Cop.2.2016.BDRip720p_by_Bathory.mkv
Format : Matroska
Format version : Version 4 / Version 2
File size : 4.35 GiB
Duration : 1h 40mn
Overall bit rate : 6 227 Kbps
Encoded date : UTC 2016-05-21 15:09:42
Writing application : mkvmerge v8.6.1 ('Flying') 64bit
Writing library : libebml v1.3.3 + libmatroska v1.4.4
DURATION : 01:38:45.184000000
NUMBER_OF_FRAMES : 1495
NUMBER_OF_BYTES : 54719
_STATISTICS_WRITING_APP : mkvmerge v8.6.1 ('Flying') 64bit
_STATISTICS_WRITING_DATE_UTC : 2016-05-21 15:09:42
_STATISTICS_TAGS : BPS DURATION NUMBER_OF_FRAMES NUMBER_OF_BYTES
Video
ID : 1
Format : AVC
Format/Info : Advanced Video Codec
Format profile : High@L4.1
Format settings, CABAC : Yes
Format settings, ReFrames : 9 frames
Codec ID : V_MPEG4/ISO/AVC
Duration : 1h 40mn
Bit rate : 5 462 Kbps
Width : 1 280 pixels
Height : 720 pixels
Display aspect ratio : 16:9
Frame rate mode : Constant
Frame rate : 23.976 fps
Color space : YUV
Chroma subsampling : 4:2:0
Bit depth : 8 bits
Scan type : Progressive
Bits/(Pixel*Frame) : 0.247
Stream size : 3.73 GiB (86%)
Writing library : x264 core 148 r2692 64f4e24
Encoding settings : cabac=1 / ref=9 / deblock=1:-3:-3 / analyse=0x3:0x133 / me=umh / subme=11 / psy=1 / psy_rd=1.10:0.10 / mixed_ref=1 / me_range=32 / chroma_me=1 / trellis=2 / 8x8dct=1 / cqm=0 / deadzone=21,11 / fast_pskip=0 / chroma_qp_offset=-3 / threads=12 / lookahead_threads=3 / sliced_threads=0 / nr=0 / decimate=0 / interlaced=0 / bluray_compat=0 / constrained_intra=0 / bframes=12 / b_pyramid=2 / b_adapt=2 / b_bias=0 / direct=3 / weightb=1 / open_gop=0 / weightp=2 / keyint=240 / keyint_min=23 / scenecut=0 / intra_refresh=0 / rc_lookahead=60 / rc=2pass / mbtree=1 / bitrate=5462 / ratetol=1.0 / qcomp=0.70 / qpmin=0 / qpmax=69 / qpstep=4 / cplxblur=15.0 / qblur=0.5 / vbv_maxrate=50000 / vbv_bufsize=62500 / nal_hrd=none / filler=0 / ip_ratio=1.40 / aq=2:1.00
Default : Yes
Forced : No
Audio #1
ID : 2
Format : AC-3
Format/Info : Audio Coding 3
Mode extension : CM (complete main)
Format settings, Endianness : Big
Codec ID : A_AC3
Duration : 1h 40mn
Bit rate mode : Constant
Bit rate : 384 Kbps
Channel(s) : 6 channels
Channel positions : Front: L C R, Side: L R, LFE
Sampling rate : 48.0 KHz
Bit depth : 16 bits
Compression mode : Lossy
Stream size : 275 MiB (6%)
Language : Russian
Default : Yes
Forced : No
Audio #2
ID : 3
Format : AC-3
Format/Info : Audio Coding 3
Mode extension : CM (complete main)
Format settings, Endianness : Big
Codec ID : A_AC3
Duration : 1h 40mn
Bit rate mode : Constant
Bit rate : 384 Kbps
Channel(s) : 6 channels
Channel positions : Front: L C R, Side: L R, LFE
Sampling rate : 48.0 KHz
Bit depth : 16 bits
Compression mode : Lossy
Stream size : 275 MiB (6%)
Language : English
Default : No
Forced : No
Text
ID : 4
Format : UTF-8
Codec ID : S_TEXT/UTF8
Codec ID/Info : UTF-8 Plain Text
Language : English
Default : No
Forced : No
Menu #1
00:00:00.000 : en:Chapter 01
00:07:32.535 : en:Chapter 02
00:14:16.564 : en:Chapter 03
00:22:52.829 : en:Chapter 04
00:34:34.614 : en:Chapter 05
00:43:36.447 : en:Chapter 06
00:53:14.149 : en:Chapter 07
01:00:23.703 : en:Chapter 08
01:10:18.214 : en:Chapter 09
01:18:35.961 : en:Chapter 10
01:26:37.859 : en:Chapter 11
01:34:38.464 : en:Chapter 12
Menu #2
00:00:00.000 : en:00:00:00.000
00:07:32.535 : en:00:07:32.535
00:14:16.564 : en:00:14:16.564
00:22:52.830 : en:00:22:52.830
00:34:34.698 : en:00:34:34.698
00:43:36.614 : en:00:43:36.614
00:53:14.233 : en:00:53:14.233
01:00:23.787 : en:01:00:23.787
01:10:18.381 : en:01:10:18.381
01:18:36.128 : en:01:18:36.128
01:26:38.026 : en:01:26:38.026
01:34:38.464 : en:01:34:38.464

Скриншоты

Релиз от:
Автор рипа: Bathory
[Профиль] [ЛС]
Показать сообщения:    

Текущее время: Сегодня 09:08

Часовой пояс: GMT



Вы не можете начинать темы
Вы не можете отвечать на сообщения
Вы не можете редактировать свои сообщения
Вы не можете удалять свои сообщения
Вы не можете голосовать в опросах
Вы не можете прикреплять файлы к сообщениям
Вы не можете скачивать файлы