Детоксикация / D-Tox (2002) BDRip-AVC от rondik | P, P2, L2, A

 
Автор Сообщение

Russian Mafia ®

Пол:

Стаж: 1 год 8 месяцев

Сообщений: 4257



Награды: 10 (Подробнее)

Top Releaser 5 (Количество: 1) Top Releaser 3 (Количество: 1) За внесенный вклад в развитие сайта (Количество: 1)
Торрент-статистика

Создавать темы 20-Мар-2016 06:53

[Цитировать]

Информация о фильме
Название: Детоксикация
Оригинальное название: D-Tox
Год выхода: 20002
Жанр: Ужасы, боевик, триллер, драма, криминал, детектив
Режиссер: Джим Гиллеспи
В ролях: Сильвестр Сталлоне, Чарльз С. Даттон, Полли Уокер, Крис Кристофферсон, Миф, Кристофер Фулфорд, Джеффри Райт, Том Беренджер, Стивен Лэнг, Алан С. Петерсон, Хротгар Мэтьюз, Анджела Альварадо, Роберт Проски, Роберт Патрик, Кортни Б. Вэнс, Шон Патрик Флэнери, Тим Генри, Дина Мейер, Рэнс Ховард, Фрэнк Пеллегрино, Джеймс Кидни, Ив Камерон, Харрисон Коу, Питер Флемминг, Крис Нельсон Норрис, Билл МакКензи, Йен Гшвинд, Дэвид Льюис, Джон Тимоти Ботка, Джеймс Ральф
О фильме:
Агент ФБР Джейк Малой стал свидетелем зверского убийства. Джейку так и не удалось справиться с пережитым шоком: он начинает искать забвение в алкоголе. Пытаясь вернуться в нормальной жизни, агент соглашается пройти детоксикацию в закрытой клинике для «опустившихся» полицейских. Клиника отрезана от внешнего мира и расположена глубоко в заснеженном лесу. Здесь проходит курс лечения разношерстная группа пациентов служителей закона «с отклонениями».Однако эта компания так и не успеет излечиться от пагубных пристрастий: их пребывание в клинике превращается в жуткий и кровавый кошмар. Мрачные стены лечебницы содрогаются от невероятных по своей жестокости убийств. Кто-то начинает умерщвлять обитателей клиники одного за другим. И, что самое страшное, агент Малой узнает почерк убийцы...

Страна: США, Германия, Universal Pictures, KC Medien, Capella International
Продолжительность: 01:35:44
Перевод: Профессиональный многоголосый, любительский двухголосый, профессиональный двухголосый, авторский одноголосый
Субтитры: Русские, английские
Дата релиза: 04.03.2013
Файл
Кодек: H.264
Качество: BDRip (AVC) (Blu-Ray Remux (1080p))
Видео: MPEG-4 AVC, 1799 Кбит/с, 1024x436
Звук:
Аудио №1: Русский (AC3, 6 ch, 448 Кбит/с) - Профессиональный многоголосый - [CEE]
Аудио №2: Русский (AC3, 2 ch, 192 Кбит/с) - Профессиональный многоголосый - [ОРТ]
Аудио №3: Русский (AC3, 2 ch, 192 Кбит/с) - Любительский двухголосый
Аудио №4: Русский (AC3, 6 ch, 384 Кбит/с) - Авторский одноголосый - [Андрей Гаврилов]
Аудио №5: Русский (AC3, 2 ch, 192 Кбит/с) - Авторский одноголосый - [Рябов]
Аудио №6: Русский (AC3, 6 ch, 448 Кбит/с) - Профессиональный двухголосыйй - [Петр Гланц и Инна Королева]
Аудио №7: Английский (AC3, 6 ch, 448 Кбит/с)

MediaInfo

Общее
Уникальный идентификатор : 216229571934681787846816212138702404376 (0xA2AC4CFDA1910AEE825712E2A80FFB18)
Полное имя : D:1Detoksikacija.2002.x264.BDRip.(AVC).rondik.mkv
Формат : Matroska
Версия формата : Version 2
Размер файла : 2,75 Гбайт
Продолжительность : 1 ч. 35 м.
Общий поток : 4105 Кбит/сек
Название фильма : Detoksikacija.2002.x264.BDRip.(AVC).rondik
Дата кодирования : UTC 2013-03-04 10:11:35
Программа кодирования : mkvmerge v4.0.0 ('The Stars were mine') сборка от Jun 6 2010 16:18:42
Библиотека кодирования : libebml v1.0.0 + libmatroska v1.0.0
Видео
Идентификатор : 1
Формат : AVC
Формат/Информация : Advanced Video Codec
Профиль формата : High@L4.1
Параметр CABAC формата : Да
Параметр ReFrames формата : 8 кадров
Идентификатор кодека : V_MPEG4/ISO/AVC
Продолжительность : 1 ч. 35 м.
Битрейт : 1799 Кбит/сек
Ширина : 1024 пикселя
Высота : 436 пикселей
Соотношение сторон : 2,35:1
Частота кадров : 23,976 кадра/сек
Цветовое пространство : YUV
Субдискретизация насыщенности : 4:2:0
Битовая глубина : 8 бит
Тип развёртки : Прогрессивная
Бит/(Пиксели*Кадры) : 0.168
Размер потока : 1,15 Гбайт (42%)
Заголовок : Rip by rondik
Библиотека кодирования : x264 core 129 r2245 bc13772
Настройки программы : cabac=1 / ref=8 / deblock=1:-2:-2 / analyse=0x3:0x133 / me=umh / subme=11 / psy=1 / psy_rd=1.00:0.00 / mixed_ref=1 / me_range=48 / chroma_me=1 / trellis=2 / 8x8dct=1 / cqm=0 / deadzone=21,11 / fast_pskip=0 / chroma_qp_offset=-2 / threads=3 / lookahead_threads=1 / sliced_threads=0 / nr=0 / decimate=0 / interlaced=0 / bluray_compat=0 / constrained_intra=0 / bframes=9 / b_pyramid=2 / b_adapt=2 / b_bias=0 / direct=3 / weightb=1 / open_gop=0 / weightp=2 / keyint=240 / keyint_min=23 / scenecut=40 / intra_refresh=0 / rc_lookahead=40 / rc=2pass / mbtree=1 / bitrate=1799 / ratetol=1.0 / qcomp=0.60 / qpmin=10 / qpmax=51 / qpstep=4 / cplxblur=20.0 / qblur=0.5 / ip_ratio=1.40 / aq=2:1.00
Язык : English
Аудио #1
Идентификатор : 2
Формат : AC-3
Формат/Информация : Audio Coding 3
Расширение режима : CM (complete main)
Идентификатор кодека : A_AC3
Продолжительность : 1 ч. 35 м.
Вид битрейта : Постоянный
Битрейт : 448 Кбит/сек
Каналы : 6 каналов
Расположение каналов : Front: L C R, Side: L R, LFE
Частота : 48,0 КГц
Битовая глубина : 16 бит
Метод сжатия : С потерями
Размер потока : 307 Мбайт (11%)
Заголовок : Профессиональный многоголосый - [CEE]
Язык : Russian
Аудио #2
Идентификатор : 3
Формат : AC-3
Формат/Информация : Audio Coding 3
Расширение режима : CM (complete main)
Идентификатор кодека : A_AC3
Продолжительность : 1 ч. 35 м.
Вид битрейта : Постоянный
Битрейт : 192 Кбит/сек
Каналы : 2 канала
Расположение каналов : Front: L R
Частота : 48,0 КГц
Битовая глубина : 16 бит
Метод сжатия : С потерями
Размер потока : 131 Мбайт (5%)
Заголовок : Профессиональный многоголосый - [ОРТ]
Язык : Russian
Аудио #3
Идентификатор : 4
Формат : AC-3
Формат/Информация : Audio Coding 3
Расширение режима : CM (complete main)
Идентификатор кодека : A_AC3
Продолжительность : 1 ч. 35 м.
Вид битрейта : Постоянный
Битрейт : 192 Кбит/сек
Каналы : 2 канала
Расположение каналов : Front: L R
Частота : 48,0 КГц
Битовая глубина : 16 бит
Метод сжатия : С потерями
Размер потока : 131 Мбайт (5%)
Заголовок : Любительский двухголосый
Язык : Russian
Аудио #4
Идентификатор : 5
Формат : AC-3
Формат/Информация : Audio Coding 3
Расширение режима : CM (complete main)
Идентификатор кодека : A_AC3
Продолжительность : 1 ч. 35 м.
Вид битрейта : Постоянный
Битрейт : 384 Кбит/сек
Каналы : 6 каналов
Расположение каналов : Front: L C R, Side: L R, LFE
Частота : 48,0 КГц
Битовая глубина : 16 бит
Метод сжатия : С потерями
Размер потока : 263 Мбайт (9%)
Заголовок : Авторский одноголосый - Андрей Гаврилов
Язык : Russian
Аудио #5
Идентификатор : 6
Формат : AC-3
Формат/Информация : Audio Coding 3
Расширение режима : CM (complete main)
Идентификатор кодека : A_AC3
Продолжительность : 1 ч. 35 м.
Вид битрейта : Постоянный
Битрейт : 192 Кбит/сек
Каналы : 2 канала
Расположение каналов : Front: L R
Частота : 48,0 КГц
Битовая глубина : 16 бит
Метод сжатия : С потерями
Размер потока : 131 Мбайт (5%)
Заголовок : Авторский одноголосый - Рябов
Язык : Russian
Аудио #6
Идентификатор : 7
Формат : AC-3
Формат/Информация : Audio Coding 3
Расширение режима : CM (complete main)
Идентификатор кодека : A_AC3
Продолжительность : 1 ч. 35 м.
Вид битрейта : Постоянный
Битрейт : 448 Кбит/сек
Каналы : 6 каналов
Расположение каналов : Front: L C R, Side: L R, LFE
Частота : 48,0 КГц
Битовая глубина : 16 бит
Метод сжатия : С потерями
Размер потока : 307 Мбайт (11%)
Заголовок : Профессиональный двухголосыйй - [Петр Гланц и Инна Королева]
Язык : Russian
Аудио #7
Идентификатор : 8
Формат : AC-3
Формат/Информация : Audio Coding 3
Расширение режима : CM (complete main)
Идентификатор кодека : A_AC3
Продолжительность : 1 ч. 35 м.
Вид битрейта : Постоянный
Битрейт : 448 Кбит/сек
Каналы : 6 каналов
Расположение каналов : Front: L C R, Side: L R, LFE
Частота : 48,0 КГц
Битовая глубина : 16 бит
Метод сжатия : С потерями
Размер потока : 307 Мбайт (11%)
Заголовок : Английский
Язык : English
Текст #1
Идентификатор : 9
Формат : UTF-8
Идентификатор кодека : S_TEXT/UTF8
Идентификатор кодека/Информация : UTF-8 Plain Text
Язык : Russian
Текст #2
Идентификатор : 10
Формат : UTF-8
Идентификатор кодека : S_TEXT/UTF8
Идентификатор кодека/Информация : UTF-8 Plain Text
Язык : English
Меню
00:00:00.000 : en:Chapter 1
00:03:18.824 : en:Chapter 2
00:09:02.834 : en:Chapter 3
00:16:05.548 : en:Chapter 4
00:20:18.676 : en:Chapter 5
00:24:21.418 : en:Chapter 6
00:31:14.331 : en:Chapter 7
00:35:17.907 : en:Chapter 8
00:40:20.752 : en:Chapter 9
00:45:36.651 : en:Chapter 10
00:52:41.075 : en:Chapter 11
00:58:17.452 : en:Chapter 12
01:04:26.321 : en:Chapter 13
01:09:36.422 : en:Chapter 14
01:16:10.941 : en:Chapter 15
01:22:41.081 : en:Chapter 16
01:25:57.986 : en:Chapter 17
01:31:41.454 : en:Chapter 18

Скриншоты

Автор релиза: rondik
[Профиль] [ЛС]
Кто просматривает тему:

Форум Тема Автор Размер
Фильмы (HD DVD, Blu-ray и BDRemux) Детоксикация / D-Tox (2002) BDRemux 1080p | P, P2, L2, A Russian Mafia 27.03 GB
Показать сообщения:    

Текущее время: Сегодня 06:23

Часовой пояс: GMT



Вы не можете начинать темы
Вы не можете отвечать на сообщения
Вы не можете редактировать свои сообщения
Вы не можете удалять свои сообщения
Вы не можете голосовать в опросах
Вы не можете прикреплять файлы к сообщениям
Вы не можете скачивать файлы