Детка / Laggies (Линн Шелтон / Lynn Shelton) [2014, США, комедия, драма, WEB-DLRip] Dub

 
Автор Сообщение

TorrentFilm ®

Пол:

Стаж: 2 года

Сообщений: 7741



Награды: Нет

Торрент-статистика

Создавать темы 21-Дек-2014 02:15

[Цитировать]

Детка / Laggies
Страна: США
Жанр: комедия, драма
Год выпуска: 2014
Продолжительность: 1:37:02
Перевод: Профессиональный (дублированный)
Режиссер: Линн Шелтон/Lynn Shelton
В ролях: Кира Найтли, Хлоя Грейс Морец, Сэм Рокуэлл, Марк Веббер, Элли Кемпер, Джефф Гарлин, Гретхен Мол, Эрик Ридман, Кейтлин Девер, Дэниэл Дзоватто
Описание: Непросто порой перейти из юности во взрослую жизнь. Вдруг, в самый ответственный момент оказывается, что ты еще не готов в полной мере отдавать себе отчет в своих собственных поступках. Примерно так произошло с Меган (Кира Найтли), главной героиней фильма.
Когда ее бойфренд делает девушке предложение руки и сердца, она берет паузу, врёт парню, что уезжает на недельку в отпуск, а сама буквально «впадает в детство» и отрывается в компании малознакомых тинейджеров под предводительством Аники (Хлоя Грейс Морец). Возможно, чтобы повзрослеть, ей нужно встретить другого мужчину?

Сэмпл: http://sendfile.su/1057562
Качество видео: WEB-DLRip
Формат видео: AVI
Видео: XviD; 720x384; [1.85:1]; 25.000 fps; 1814Kbps
Аудио: AC3-2; 44.1 Khz; 2ch; 192 Kbps

MediaInfo

General
Complete name : F:\L`a Cinema\Американское кино\Detka.2014.avi
Format : AVI
Format/Info : Audio Video Interleave
File size : 1.37 GiB
Duration : 1h 37mn
Overall bit rate : 2 016 Kbps
Writing application : VirtualDubMod 1.5.10.3 | www.virtualdub-fr.org || (build 2550/release)
Writing library : VirtualDubMod build 2550/release
Video
ID : 0
Format : MPEG-4 Visual
Format profile : Advanced Simple@L5
Format settings, BVOP : 2
Format settings, QPel : No
Format settings, GMC : No warppoints
Format settings, Matrix : Default (MPEG)
Codec ID : XVID
Codec ID/Hint : XviD
Duration : 1h 37mn
Bit rate : 1 814 Kbps
Width : 720 pixels
Height : 384 pixels
Display aspect ratio : 1.85:1
Frame rate : 25.000 fps
Color space : YUV
Chroma subsampling : 4:2:0
Bit depth : 8 bits
Scan type : Progressive
Compression mode : Lossy
Bits/(Pixel*Frame) : 0.263
Stream size : 1.23 GiB (90%)
Writing library : XviD 1.2.1 (UTC 2008-12-04)
Audio
ID : 1
Format : AC-3
Format/Info : Audio Coding 3
Mode extension : CM (complete main)
Format settings, Endianness : Big
Codec ID : 2000
Duration : 1h 37mn
Bit rate mode : Constant
Bit rate : 192 Kbps
Channel(s) : 2 channels
Channel positions : Front: L R
Sampling rate : 44.1 KHz
Bit depth : 16 bits
Compression mode : Lossy
Stream size : 133 MiB (10%)
Alignment : Split accross interleaves
Interleave, duration : 40 ms (1.00 video frame)
Interleave, preload duration : 500 ms

Скриншоты

[Профиль] [ЛС]
Показать сообщения:    

Текущее время: Сегодня 02:15

Часовой пояс: GMT



Вы не можете начинать темы
Вы не можете отвечать на сообщения
Вы не можете редактировать свои сообщения
Вы не можете удалять свои сообщения
Вы не можете голосовать в опросах
Вы не можете прикреплять файлы к сообщениям
Вы не можете скачивать файлы