Дети / Children / Börn (Рагнар Брагасон / Ragnar Bragason) [2006, Исландия, драма, DVDRip] VO + Sub Rus + Original

 
Автор Сообщение

TorrentFilm ®

Пол:

Стаж: 2 года

Сообщений: 7741



Награды: Нет

Торрент-статистика

Создавать темы 07-Мар-2016 00:08

[Цитировать]

Дети / Children / Börn
Страна: Исландия
Жанр: драма
Год выпуска: 2006
Продолжительность: 01:30:34
Перевод: Одноголосый закадровый
Cубтитры: русские, английские
Оригинальная аудиодорожка: исландский
Режиссер: Рагнар Брагасон / Ragnar Bragason
В ролях: Гисли Орн Гардарссон, Нина Дегг Филиппусдоттир, Олафур Дарри Олафссон, Андри Снаэр Магнассон, Ханна Мария Карлсдоттир
Описание: Каритас — мать-одиночка, воспитывающая четырех детей, отчаянно пытается выжить, едва сводя концы с концами. В спорах со своим бывшим мужем, который хочет отобрать у нее трех младших дочерей, она уже почти забыла о Гудмундуре — 12-летнем старшем сыне. Изгой в школе и среди сверстников, Гудмундур имеет только одного друга — соседа по дому Марино, не совсем психически здорового взрослого человека, который живет со своей матерью.
Марино считает себя наделенным даром определять плохих людей и когда в жизни его матери возникает поклонник, а рядом с Гудмундором появляется никогда до этого не видевший его настоящий отец — мелкий уголовник, из-за жесткости и безрассудности которого пострадали многие близкие ему люди, Марино все больше теряет связь с реальностью…
ВНИМАНИЕ! ФИЛЬМ СОДЕРЖИТ НЕНОРМАТИВНУЮ ЛЕКСИКУ.
Доп. информация: Фильм взят отсюда http://torrentfilm.net/forum/viewtopic.php?t=4310842
Сэмпл: http://multi-up.com/1091945
Качество видео: DVDRip
Формат видео: AVI
Видео: 704x384 (1.83:1), 25 fps, XviD build 50 ~931 kbps avg, 0.14 bit/pixel
Аудио:1 48 kHz, MPEG Layer 3, 2 ch, ~128.00 kbps avg(Русский)
Аудио:2 44.100 kHz, MPEG Layer 3, 2 ch, ~128.00 kbps avg(Исландский)
Формат субтитров: softsub (SRT)
Доп. информация о субтитрах: Русские внешние (dearmountain), английские

MediaInfo

Общее
Полное имя : F:\С моей озвучкой\Дети1213\Children.avi
Формат : AVI
Формат/Информация : Audio Video Interleave
Размер файла : 779 Мбайт
Продолжительность : 1 ч. 30 м.
Общий поток : 1203 Кбит/сек
Программа кодирования : VirtualDubModRus 1.5.10.2 (build 2542/release)
Библиотека кодирования : VirtualDubMod build 2542/release
Видео
Идентификатор : 0
Формат : MPEG-4 Visual
Профиль формата : Advanced Simple@L5
Параметр BVOP формата : 2
Параметр QPel формата : Нет
Параметр GMC формата : Без точки перехода
Параметр матрицы формата : Default (MPEG)
Идентификатор кодека : XVID
Идентификатор кодека/Подсказка : XviD
Продолжительность : 1 ч. 30 м.
Битрейт : 932 Кбит/сек
Ширина : 704 пикселя
Высота : 384 пикселя
Соотношение сторон : 1,85:1
Частота кадров : 25,000 кадров/сек
Цветовое пространство : YUV
Субдискретизация насыщенности : 4:2:0
Битовая глубина : 8 бит
Тип развёртки : Прогрессивная
Метод сжатия : С потерями
Бит/(Пиксели*Кадры) : 0.138
Размер потока : 604 Мбайт (78%)
Библиотека кодирования : XviD 1.2.1 (UTC 2008-12-04)
Аудио #1
Идентификатор : 1
Формат : MPEG Audio
Версия формата : Version 1
Профиль формата : Layer 3
Режим : Joint stereo
Расширение режима : MS Stereo
Идентификатор кодека : 55
Идентификатор кодека/Подсказка : MP3
Продолжительность : 1 ч. 30 м.
Вид битрейта : Постоянный
Битрейт : 128 Кбит/сек
Каналы : 2 канала
Частота : 48,0 КГц
Метод сжатия : С потерями
Размер потока : 82,9 Мбайт (11%)
Выравнивание : Соединение по промежуткам
Продолжительность промежутка : 40 мс. (1,00 видеокадр)
Время предзагрузки промежутка : 504 мс.
Библиотека кодирования : LAME3.96
Аудио #2
Идентификатор : 2
Формат : MPEG Audio
Версия формата : Version 1
Профиль формата : Layer 3
Режим : Joint stereo
Расширение режима : MS Stereo
Идентификатор кодека : 55
Идентификатор кодека/Подсказка : MP3
Продолжительность : 1 ч. 30 м.
Вид битрейта : Постоянный
Битрейт : 128 Кбит/сек
Каналы : 2 канала
Частота : 44,1 КГц
Метод сжатия : С потерями
Размер потока : 82,9 Мбайт (11%)
Выравнивание : Разделение по промежуткам
Продолжительность промежутка : 40 мс. (1,00 видеокадр)
Время предзагрузки промежутка : 500 мс.
Библиотека кодирования : LAME3.98

Скриншоты

[Профиль] [ЛС]
Показать сообщения:    

Текущее время: Сегодня 01:08

Часовой пояс: GMT



Вы не можете начинать темы
Вы не можете отвечать на сообщения
Вы не можете редактировать свои сообщения
Вы не можете удалять свои сообщения
Вы не можете голосовать в опросах
Вы не можете прикреплять файлы к сообщениям
Вы не можете скачивать файлы