Дети славы / Свобода и любовь / Szabadsag Szerelem / Children Of Glory (Кристина Года / Krisztina Goda) [2006, Венгрия, Драма, военный, история, спорт, HDRip] VO

 
Автор Сообщение

TorrentFilm ®

Пол:

Стаж: 2 года

Сообщений: 7741



Награды: Нет

Торрент-статистика

Создавать темы 17-Фев-2015 00:00

[Цитировать]

Дети славы / Свобода и любовьSzabadsag Szerelem / Children Of Glory- Страна: Венгрия
Жанр: Драма, военный, история, спорт
Год выпуска: 2006
Продолжительность: 01:55:07-Перевод: Одноголосый закадровый
Cубтитры: нет-Режиссер: Кристина Года / Krisztina Goda-В ролях: Иван Феньё, Шандор Чани, Карой Гестеши, Ильдико Баншаги, Тамаш Йордан, Тамаш Керестеш, Петер Хауманн-Описание: В 1956 году Корчи Сабо был звездой ватерпольной сборной Венгрии, её капитаном и лидером. Впереди безоблачное будущее, карьера, любовь. Но все меняется за один день. Революция, танки на улицах Будапешта, последующие трагические события толкают молодого спортсмена в гущу происходящего осенью 1956 года. Корчи поставлен перед непростым выбором. С кем он — с любимой девушкой или с любимой командой…-Sample | IMDB | КиноПоиск-Тип релиза: HDRip [исх. BDRip 1080p]
Формат видео: AVI-Видео: 624x256 (2.44:1), 25 fps, XviD build 50, 773 kbps avg, 0.19 bit/pixel
Аудио: 48 kHz, MPEG Layer 3, 2 ch, 128.00 kbps avg [Russian_VO]-Релиз группы: -

MediaInfo

General
Complete name : D:\Мои релизы\Children of Glory_HDRip_[745]_RG_All_Films.avi
Format : AVI
Format/Info : Audio Video Interleave
File size : 750 MiB
Duration : 1h 55mn
Overall bit rate : 911 Kbps
Writing application : VirtualDubMod 1.5.10.3 | www.virtualdub-fr.org || (build 2550/release)
Writing library : VirtualDubMod build 2550/release
Video
ID : 0
Format : MPEG-4 Visual
Format profile : Advanced Simple@L5
Format settings, BVOP : Yes
Format settings, QPel : No
Format settings, GMC : No warppoints
Format settings, Matrix : Custom
Codec ID : XVID
Codec ID/Hint : XviD
Duration : 1h 55mn
Bit rate : 773 Kbps
Width : 624 pixels
Height : 256 pixels
Display aspect ratio : 2.40:1
Frame rate : 25.000 fps
Color space : YUV
Chroma subsampling : 4:2:0
Bit depth : 8 bits
Scan type : Progressive
Compression mode : Lossy
Bits/(Pixel*Frame) : 0.194
Stream size : 637 MiB (85%)
Writing library : XviD 1.2.1 (UTC 2008-12-04)
Audio
ID : 1
Format : MPEG Audio
Format version : Version 1
Format profile : Layer 3
Codec ID : 55
Codec ID/Hint : MP3
Duration : 1h 55mn
Bit rate mode : Constant
Bit rate : 128 Kbps
Channel(s) : 2 channels
Sampling rate : 48.0 KHz
Compression mode : Lossy
Stream size : 105 MiB (14%)
Alignment : Aligned on interleaves
Interleave, duration : 40 ms (1.00 video frame)
Interleave, preload duration : 504 ms
Writing library : LAME3.98r
Encoding settings : -m s -V 4 -q 2 -lowpass 17 -b 128

Скриншоты

Торрент-файл перезалит 15.02.2015 по причине замены DVDRip HDRip
[Профиль] [ЛС]

Создавать темы 06-Авг-2015 22:44 (спустя 5 месяцев 17 дней)

Топик был перенесен из форума Фильмы до 2014 года в форум Фильмы до 2012 года
sergej644
 
Кто просматривает тему:

Показать сообщения:    

Текущее время: Сегодня 18:51

Часовой пояс: GMT



Вы не можете начинать темы
Вы не можете отвечать на сообщения
Вы не можете редактировать свои сообщения
Вы не можете удалять свои сообщения
Вы не можете голосовать в опросах
Вы не можете прикреплять файлы к сообщениям
Вы не можете скачивать файлы