Дети мечты / Dream Babies (Тьерри Роберт / Thierry Robert) [2017 г., Документальный, научно-познавательный, DVB]

 
Автор Сообщение

skorpionN ®

Пол:

Стаж: 2 года 8 месяцев

Сообщений: 853



Награды: 4 (Подробнее)

Mega Seeder 3 (Количество: 1) Mega Seeder 2 (Количество: 1) Mega Seeder 1 (Количество: 1)
Торрент-статистика

Создавать темы 06-Сен-2017 11:37

[Цитировать]

Дети мечты / Dream Babies
Год выпуска: 2017
Страна: Франция, Arte France - Scientfilms
Жанр: Документальный, научно-познавательный
Продолжительность: 00:52:17
Перевод: Профессиональный (двухголосый), компания Видеофильм ТВ
Режиссер: Тьерри Роберт / Thierry Robert
Описание: Хотите спроектировать пол своего ребенка? Его цвет глаз? Быть уверенным в том, что у него не будет генетических заболеваний? Выбрать идеальный сперматозоид сейчас очень просто. Репродуктивная медицина шагнула далеко вперед, и то, что задумывалось как спасение от бесплодия и генетических заболеваний, превратилось в очень прибыльный бизнес. Дети на заказ - это больше не миф.
Качество: DVB
Формат: MPEG -TS
Видео кодек: MPEG2
Аудио кодек: MPEG Audio
Видео: 720х576 (16:9) анаморфный (1024x576) 25fps ~3100 Kbps
Аудио: MPEG Audio 2 2ch, 48kHz, 192 kbps

Скриншоты


MediaInfo:

Format : MPEG-TS
File size : 1.27 GiB
Duration : 52 min 16 s
Overall bit rate mode : Variable
Overall bit rate : 3 474 kb/s
Video
ID : 4113 (0x1011)
Menu ID : 1 (0x1)
Format : MPEG Video
Format version : Version 2
Format profile : Main@Main
Format settings, BVOP : Yes
Format settings, Matrix : Custom
Format settings, GOP : M=3, N=15
Codec ID : 2
Duration : 52 min 16 s
Bit rate mode : Variable
Bit rate : 3 109 kb/s
Maximum bit rate : 9 800 kb/s
Width : 720 pixels
Height : 576 pixels
Display aspect ratio : 16:9
Frame rate : 25.000 FPS
Standard : PAL
Color space : YUV
Chroma subsampling : 4:2:0
Bit depth : 8 bits
Scan type : Progressive
Scan order : Bottom Field First
Compression mode : Lossy
Bits/(Pixel*Frame) : 0.300
Time code of first frame : 00:00:00:00
Time code source : Group of pictures header
GOP, Open/Closed : Open
GOP, Open/Closed of first fram : Closed
Stream size : 1.14 GiB (89%)
Audio
ID : 4352 (0x1100)
Menu ID : 1 (0x1)
Format : MPEG Audio
Format version : Version 1
Format profile : Layer 2
Codec ID : 3
Duration : 52 min 16 s
Bit rate mode : Constant
Bit rate : 192 kb/s
Channel(s) : 2 channels
Sampling rate : 48.0 kHz
Compression mode : Lossy
Stream size : 71.8 MiB (6%)
Language : Russian
[Профиль] [ЛС]
Кто просматривает тему:

Показать сообщения:    

Текущее время: Сегодня 21:34

Часовой пояс: GMT



Вы не можете начинать темы
Вы не можете отвечать на сообщения
Вы не можете редактировать свои сообщения
Вы не можете удалять свои сообщения
Вы не можете голосовать в опросах
Вы не можете прикреплять файлы к сообщениям
Вы не можете скачивать файлы