Детективное агентство "Лассе и Майя": Возвращение Хамелеона / LasseMajas detektivbyra - Kameleontens hamnd (Хенрик Георгссон / Henrik Georgsson) [2008, Швеция, детский, детектив, приключения, SATRip] MVO

 
Автор Сообщение

TorrentFilm ®

Пол:

Стаж: 2 года 6 месяцев

Сообщений: 7773



Награды: Нет

Торрент-статистика

Создавать темы 01-Фев-2016 00:08

[Цитировать]

Детективное агентство "Лассе и Майя": Возвращение Хамелеона / LasseMajas detektivbyra - Kameleontens hamnd
Страна: Швеция
Жанр: детский, детектив, приключения
Год выпуска: 2008
Продолжительность: 01:32:13
Перевод: Профессиональный (многоголосый закадровый)
Cубтитры: нет
Режиссер: Хенрик Георгссон / Henrik Georgsson
В ролях: Томас Норстрем, Матильда Гран, Теодор Рунсие, Пиа Йоханссон
Описание: Когда в городе начинают происходить мистические события, юные детективы Лассе и Майя без раздумий берутся за дело! Жители городка Валлиби находятся в приподнятом настроении - в разгаре традиционный осенний праздник, и скоро будет объявлен победитель конкурса "Самый известный житель города". Все прочат победу начальнику полиции, но когда публике представляют изготовленный заранее бюст победителя, восторг толпы сменяется шоком. Кто-то подменил бюст на зловещий череп. Это происшествие стало первым в цепочке странных событий, случившихся в городе. Юные детективы Лассе и Майя немедленно принимаются за дело, хотя кажется, что Лассе потерял свою "искру".
Сэмпл: http://multi-up.com/1086357
Качество видео: SATRip
Формат видео: AVI
Видео: XviD, 720x480 (16:9), 25 fps, ~1776 kbps
Аудио: MPEG Layer 3, 44.100 kHz, 2 ch, ~192.00 kbps

MediaInfo

Format : AVI
Format/Info : Audio Video Interleave
Format profile : OpenDML
File size : 1.27 GiB
Duration : 1h 32mn
Overall bit rate : 1 975 Kbps
Writing application : Lavf54.59.106
Comment : Processed by freeware version of AsfBin
Video
ID : 0
Format : xvid
Codec ID : xvid
Duration : 1h 32mn
Bit rate : 1 768 Kbps
Width : 720 pixels
Height : 480 pixels
Display aspect ratio : 16:9
Frame rate : 25.000 fps
Standard : NTSC
Bits/(Pixel*Frame) : 0.205
Stream size : 1.14 GiB (90%)
Audio
ID : 1
Format : MPEG Audio
Format version : Version 1
Format profile : Layer 3
Mode : Joint stereo
Mode extension : MS Stereo
Codec ID : 55
Codec ID/Hint : MP3
Duration : 1h 32mn
Bit rate mode : Constant
Bit rate : 192 Kbps
Channel(s) : 2 channels
Sampling rate : 44.1 KHz
Compression mode : Lossy
Stream size : 127 MiB (10%)
Alignment : Aligned on interleaves
Interleave, duration : 26 ms (0.65 video frame)
Interleave, preload duration : 26 ms
Writing library : LAME3.98.4

Скриншоты

[Профиль] [ЛС]

Создавать темы 12-Июн-2016 08:50 (спустя 4 месяца 11 дней)

Топик был перенесен из форума Фильмы 2011 года в форум Фильмы 2006-2008 года
Russian Mafia
 
Кто просматривает тему:

Форум Тема Автор Размер
Зарубежные сериалы Американские боги / American Gods [2017] (Сезон 1 , Серия 1- 8 из 8) (Дэвид Слэйд, Адам Кэйн, Винченцо Натали) [ Фэнтези, детектив , WEB-DLRip][1080p][HEVC ][... Враг Нароода 39.98 GB
Боевики, детективы, триллеры Анна Князева - Серия книг Детектив с таинственной историей [2013-2015, FB2,RTF, RUS] Swager 43 MB
Отечественные cериалы Анна-детективъ / Сезон:1 / Серии: 1-56 из 56 (Феликс Герчиков, Евгений Семенов, Артур Румынский) [2016., Детектив, мелодрама, WEB-DLRip] Pensioner 32.8 GB
Отечественные cериалы Беги! / RUN! (Серии 1-4 из 4) (Андрей Волгин, Максим Кондратенко) [2016, Боевик, детектив, криминал , HDTVRip 1080p] [DD5.1] Враг Нароода 11.35 GB
Отечественные cериалы Двое с пистолетами [01-16 из 16] (Алексей Гусев)[2014, Иронический детектив, SATRip] К@питан 9.65 GB
Кино СССР Десять негритят (Станислав Говорухин) [1987, криминал, детектив, триллер, DVDRip-AVC] Bathory 2.05 GB
Отечественные cериалы Детективы [11x01-100 из 100] (2016) SATRip достали все 39.12 GB
Отечественные cериалы Дом на холодном ключе (Тарас Дударь) [2016 г., Детектив, мелодрама, SATRip] Pensioner 2.15 GB
Показать сообщения:    

Текущее время: Сегодня 09:06

Часовой пояс: GMT



Вы не можете начинать темы
Вы не можете отвечать на сообщения
Вы не можете редактировать свои сообщения
Вы не можете удалять свои сообщения
Вы не можете голосовать в опросах
Вы не можете прикреплять файлы к сообщениям
Вы не можете скачивать файлы