Десять минут до полудня / Ten ‘til Noon (Скотт Сторм / Scott Storm) [2006, США, триллер, детектив, чёрная комедия, DVDRip] DVO

 
Автор Сообщение

TorrentFilm ®

Пол:

Стаж: 2 года

Сообщений: 7741



Награды: Нет

Торрент-статистика

Создавать темы 07-Янв-2016 00:12

[Цитировать]

Десять минут до полудня / Ten ‘til Noon
Страна: США
Жанр: триллер, детектив, чёрная комедия
Год выпуска: 2006
Продолжительность: 1:24:08
Перевод: Профессиональный (двухголосый закадровый)
Перевод - Илья Вяземский, озвучивают Марина Иванова и Павел Пашут
Cубтитры: нет
Оригинальная аудиодорожка: нет
Режиссер: Скотт Сторм / Scott Storm
В ролях: Альфонсо Фриман, Рэйн Гэст, Джения Лено, Рик Вассерман
Описание: Преступление было совершено между 11:50 и 12:00 по полудню. И в эти же 10 минут мы наблюдаем за событиями в жизни десятка человек, так или иначе связанных с преступлением, видя точку зрения каждого из них, постепенно продвигаясь к разгадке – что же произошло на самом деле, почему, и чем дело кончится.
Доп. информация:
Предупреждение №1
В фильме демонстрируются табачные изделия. Курение вредит вашему здоровью!
Предупреждение №2
Для тех, кто при появлении финальных титров нажимает кнопку "стоп". На этом фильм не заканчивается!
Сэмпл: http://multi-up.com/1082365
Качество видео: DVDRip
Формат видео: AVI
Видео: XviD, 720x400 (1.80:1), 25 fps, ~2130 kbps
Аудио: MPEG Layer 3, 48 kHz, 2 ch, 192 kbps - русский

MediaInfo

Общее
Полное имя : D:\10 ‘till Noon\10 ‘till Noon.avi
Формат : AVI
Формат/Информация : Audio Video Interleave
Размер файла : 1,37 Гбайт
Продолжительность : 1 ч. 24 м.
Общий поток : 2331 Кбит/сек
Программа кодирования : VirtualDubMod 1.5.10.2 (build 2540/release)
Библиотека кодирования : VirtualDubMod build 2540/release
Видео
Идентификатор : 0
Формат : MPEG-4 Visual
Профиль формата : Advanced Simple@L5
Параметр BVOP формата : 1
Параметр QPel формата : Нет
Параметр GMC формата : Без точки перехода
Параметр матрицы формата : Default (MPEG)
Идентификатор кодека : DX50
Идентификатор кодека/Подсказка : DivX 5
Продолжительность : 1 ч. 24 м.
Битрейт : 2130 Кбит/сек
Ширина : 720 пикселей
Высота : 400 пикселей
Соотношение сторон : 16:9
Частота кадров : 25,000 кадров/сек
Цветовое пространство : YUV
Субдискретизация насыщенности : 4:2:0
Битовая глубина : 8 бит
Тип развёртки : Прогрессивная
Метод сжатия : С потерями
Бит/(Пиксели*Кадры) : 0.296
Размер потока : 1,25 Гбайт (91%)
Библиотека кодирования : XviD 1.2.1 (UTC 2008-12-04)
Аудио
Идентификатор : 1
Формат : AC-3
Формат/Информация : Audio Coding 3
Расширение режима : CM (complete main)
Параметр Endianness формата : Big
Идентификатор кодека : 2000
Продолжительность : 1 ч. 24 м.
Вид битрейта : Постоянный
Битрейт : 192 Кбит/сек
Каналы : 2 канала
Расположение каналов : Front: L R
Частота : 48,0 КГц
Битовая глубина : 16 бит
Метод сжатия : С потерями
Размер потока : 116 Мбайт (8%)
Выравнивание : Разделение по промежуткам
Продолжительность промежутка : 40 мс. (1,00 видеокадр)
Время предзагрузки промежутка : 500 мс.

Скриншот c названием фильма

Скриншоты

[Профиль] [ЛС]
Кто просматривает тему:

Форум Тема Автор Размер
Chanson (Шансон) VA - В десяточку! Лучшие блатные песни - 2015, MP3, 256 kbps достали все 697 MB
Документальные HD 80-е: Десятилетие, которое сотворило нас / The 80s: The Decade That Made Us (Джонатан Рудд / Jonathan Rudd) (1-8 из ? серий) [Документальный, DVB-S2 Remux 1080i] VO TorrentFilm 23.7 GB
Современная история CNN: Семидесятые / The Seventies [серии 1-8 из 8] (Кристофер Коуэн / Christopher G. Cowen, Кирк Сэдаски / Kirk Saduski) [2015 г., Документальный, история, SATRip] skorpionN 4.65 GB
Современная история CNN: Шестидесятые / The Sixties [серии 1-10 из 10] (Кристофер Коуэн / Christopher G. Cowen, Кирк Сэдаски / Kirk Saduski) [2013 г., Документальный, история, SATRip] skorpionN 5.63 GB
Компьютерная литература Андрианов В. - Десятипальцевый метод печати на компьютере. 2-е издание (2014) PDF Garik014 16 MB
Отечественные мультфильмы В тридесятом веке (Владимир Самсонов) [1972, мультфильм, DVB] painkiller 443 MB
Отечественные cериалы Восьмидесятые [S01-05] (2011-2015) DVB Russian Mafia 61.17 GB
Отечественные cериалы Восьмидесятые [S01-06] (2011-2016) SATRip достали все 30.53 GB
Показать сообщения:    

Текущее время: Сегодня 22:09

Часовой пояс: GMT



Вы не можете начинать темы
Вы не можете отвечать на сообщения
Вы не можете редактировать свои сообщения
Вы не можете удалять свои сообщения
Вы не можете голосовать в опросах
Вы не можете прикреплять файлы к сообщениям
Вы не можете скачивать файлы