Десятое королевство / The 10th Kingdom [S01] (2000) BDRip 1080p | P, A

 
Автор Сообщение

достали все ®

Пол:

Стаж: 1 год 8 месяцев

Сообщений: 6554



Награды: 12 (Подробнее)

Top Releaser 2 (Количество: 1) Top Releaser 3 (Количество: 1) Mega Releaser 1 (Количество: 1)
Торрент-статистика

Создавать темы 12-Фев-2016 22:37

[Цитировать]

Информация о фильме
Название: Десятое королевство
Оригинальное название: The 10th Kingdom
Год выхода: 2000
Жанр: Фэнтези, мелодрама, комедия, детектив, приключения, семейный
Режиссер: Дэвид Карсон, Херберт Уайз
В ролях: Рутгер Хауэр, Скотт Коэн, Джон Ларрокетт, Кимберли Уильямс, Кэмрин Мэнхайм, Дайэнн Уист, Лиз Мэй Брайс, Энн-Маргрет, Джон Шрэпнел, Джимми Нэйл, Тимоти Бэйтсон, Аден Жиллетт, Эдвард Джюзбери, Джеффри Викхэм, Джеймс Кэрролл Джордан, Дилан Белл, Гудрун Уре, Джонни Майерс, Брайони Гласско, Артур Кокс, Клифф Бэрри, Уильям Марш, Найджел Уитми
О фильме:
Официантка нью-йоркского кафе Вирджиния однажды спасает песика, который оказывается заколдованным принцем Венделом, сбежавшим из Страны Девяти Королевств в наш мир, спасаясь от злой Королевы-Мачехи. Принц приходится внуком Белоснежке и является прямым наследником трона, но у Королевы свои планы. Она посылает уродливых и злых троллей убить принца, и они тоже перебираются в наш мир… Так, неожиданно для себя, обычная современная девушка Вирджиния оказывается в самом центре невероятных фантастических событий.

Страна: США, Германия, Великобритания,
Студия: Babelsberg Film und Fernsehen, Carnival Films, Hallmark Entertainment
Продолжительность: 5 x ~ 01:25:00
Перевод: Профессиональный многоголосый, авторский
Файлы
Кодек: x264
Качество: BDRip 1080p
Видео: MPEG-4 AVC, ~13890 Кбит/с, 1920x1080, 25 кадр/с
Звук:
Аудио #1: Русский (AC3, 6 ch,448 Кбит/с) / Профессиональный многоголосый (Cinema Prestige)
Аудио #2: Русский (AC3, 2 ch, 192 Кбит/с) / Профессиональный многоголосый (Екатеринбург-Арт (VHS))
Аудио #3: Русский (AC3, 6 ch, 384 Кбит/с) / Профессиональный многоголосый (CP-Digital)
Аудио #4: Русский (AC3, 6 ch, 448 Кбит/с) / Авторский одноголосый (Юрий Сербин)
Аудио #5: Украинский (AC3, 2 ch, 192 Кбит/с) / Профессиональный многоголосый (ICTV)
Аудио #6: Украинский (AC3, 2 ch, 192 Кбит/с) / Профессиональный многоголосый (НЛО-ТВ)
Аудио #7: Английский (AC3, 6 ch, 448 Кбит/с)
Аудио #8: Английский (AC3, 2 ch, 448 Кбит/с) / Isolated musical score track
Субтитры: Русские, английские (Full, SDH)
Семпл

О релизе

• За исходник Blu-ray [Custom] 1080p AVC DD5.1 спасибо: HDClub - sergey_n
• Частота видео изменена с 23.976 до исходных 25 кадр/с.
• Исходные диски приобретены в рамках сервиса "Мастерская". Спонсоры: VarvarFT, kolki, GrozaZX, Blackwind, SlavSolo, dekapot, tambov68, DOMINO, ntktuf, tivishnik, slonics7, _astarot_, irrlicht.
• Перевод Юрия Сербина выполнен в в рамках сервиса "Озвучивание". Спонсоры: aladdin911, VarvarFT, ultrajeka, Hedy, Juve, mentat, Pertcev, PUSSEN1964, mhscaptain, tambov68, igorudo, Grigori, DimitruKK, Andy_Ko, Andresoff, hdrmv12, ntktuf, banan87, chplintik13, slonics7, xerman13, Luka69, sync740, daniladze, malyaka, givi070, Tagansky, andrew_pol, fittywhitedie, Fullsport.
• За VHS-кассеты с переводом Екатеринбург-Арт большое спасибо RockNIK88. Организация и оплата пересылки кассет Steal. Оцифровка PUSSEN1964.
• За украинские аудиодорожки спасибо hurtom: ratbol, bambulla, Konfucius.
• В озвучке CP-Digital тылы и фронты поменяли местами, поскольку контора традиционно накосячила с дорогой. Так же присутствует плавающий межканальный рассинхрон - его не правили. Дорога добавлена "чтоб была".
• Сохранены оригинальные чаптеры как на Blu-ray.

Знаете ли вы, что...

» Всего в фильме снималось 130 актеров и 3550 статистов.
» Было изготовлено 4000 костюмов и построено 150 декораций.
» В ходе съемок было истрачено 400 километров пленки.
» Карта девяти королевств на самом деле представляет собой немного переделанную карту Европы.
» Джон Ларрокетт, сыгравший отца Вирджинии Энтони, также сыграл роль великана, который перешагивает через мост Нью-Йорка в титрах.
» В фильме присутствует 600 компьютерных спецэффектов.
» Сцены со старинными замками сняты во Франции, Англии и Австрии (в Альпах).

MI

General
Unique ID : 188627283373470821492933391986879009189 (0x8DE84B182E99206AB17260201F6E91A5)
Complete name : The.10th.Kingdom.Part-1.2000.BDRip.1080p.MediaClub.mkv
Format : Matroska
Format version : Version 4 / Version 2
File size : 9.48 GiB
Duration : 1h 25mn
Overall bit rate : 15.8 Mbps
Movie name : release MediaClub - MINION
Encoded date : UTC 2016-02-06 07:15:25
Writing application : mkvmerge v8.8.0 ('Wind at my back') 64bit
Writing library : libebml v1.3.3 + libmatroska v1.4.4
Attachements : cover.jpg / Log x264.log
Video
ID : 1
Format : AVC
Format/Info : Advanced Video Codec
Format profile : High@L4.1
Format settings, CABAC : Yes
Format settings, ReFrames : 4 frames
Codec ID : V_MPEG4/ISO/AVC
Duration : 1h 25mn
Bit rate : 13.0 Mbps
Width : 1 920 pixels
Height : 1 080 pixels
Display aspect ratio : 16:9
Frame rate mode : Constant
Frame rate : 25.000 fps
Color space : YUV
Chroma subsampling : 4:2:0
Bit depth : 8 bits
Scan type : Progressive
Bits/(Pixel*Frame) : 0.251
Stream size : 7.61 GiB (80%)
Title : The 10th Kingdom Part-1 2000 BDRip 1080p [MediaClub - MINION]
Writing library : x264 core 148 r2638 7599210
Encoding settings : cabac=1 / ref=4 / deblock=1:-3:-3 / analyse=0x3:0x133 / me=umh / subme=11 / psy=1 / psy_rd=1.00:0.10 / mixed_ref=1 / me_range=48 / chroma_me=1 / trellis=2 / 8x8dct=1 / cqm=0 / deadzone=21,11 / fast_pskip=0 / chroma_qp_offset=-3 / threads=6 / lookahead_threads=1 / sliced_threads=0 / nr=0 / decimate=0 / interlaced=0 / bluray_compat=0 / constrained_intra=0 / bframes=8 / b_pyramid=2 / b_adapt=2 / b_bias=0 / direct=3 / weightb=1 / open_gop=0 / weightp=2 / keyint=250 / keyint_min=25 / scenecut=40 / intra_refresh=0 / rc=2pass / mbtree=0 / bitrate=13000 / ratetol=1.0 / qcomp=0.60 / qpmin=10 / qpmax=51 / qpstep=4 / cplxblur=20.0 / qblur=0.5 / ip_ratio=1.40 / pb_ratio=1.30 / aq=1:1.00
Language : English
Default : Yes
Forced : No
Audio #1
ID : 2
Format : AC-3
Format/Info : Audio Coding 3
Mode extension : CM (complete main)
Format settings, Endianness : Big
Codec ID : A_AC3
Duration : 1h 25mn
Bit rate mode : Constant
Bit rate : 448 Kbps
Channel(s) : 6 channels
Channel positions : Front: L C R, Side: L R, LFE
Sampling rate : 48.0 KHz
Compression mode : Lossy
Stream size : 275 MiB (3%)
Title : MVO - Cinema Prestige
Language : Russian
Default : Yes
Forced : No
Audio #2
ID : 3
Format : AC-3
Format/Info : Audio Coding 3
Mode extension : CM (complete main)
Format settings, Endianness : Big
Codec ID : A_AC3
Duration : 1h 25mn
Bit rate mode : Constant
Bit rate : 192 Kbps
Channel(s) : 2 channels
Channel positions : Front: L R
Sampling rate : 48.0 KHz
Compression mode : Lossy
Stream size : 118 MiB (1%)
Title : MVO - Екатеринбург-Арт (VHS)
Language : Russian
Default : No
Forced : No
Audio #3
ID : 4
Format : AC-3
Format/Info : Audio Coding 3
Mode extension : CM (complete main)
Format settings, Endianness : Big
Codec ID : A_AC3
Duration : 1h 25mn
Bit rate mode : Constant
Bit rate : 448 Kbps
Channel(s) : 6 channels
Channel positions : Front: L C R, Side: L R, LFE
Sampling rate : 48.0 KHz
Compression mode : Lossy
Stream size : 275 MiB (3%)
Title : MVO - CP-Digital
Language : Russian
Default : No
Forced : No
Audio #4
ID : 5
Format : AC-3
Format/Info : Audio Coding 3
Mode extension : CM (complete main)
Format settings, Endianness : Big
Codec ID : A_AC3
Duration : 1h 25mn
Bit rate mode : Constant
Bit rate : 448 Kbps
Channel(s) : 6 channels
Channel positions : Front: L C R, Side: L R, LFE
Sampling rate : 48.0 KHz
Compression mode : Lossy
Stream size : 275 MiB (3%)
Title : AVO - Юрий Сербин
Language : Russian
Default : No
Forced : No
Audio #5
ID : 6
Format : AC-3
Format/Info : Audio Coding 3
Mode extension : CM (complete main)
Format settings, Endianness : Big
Codec ID : A_AC3
Duration : 1h 25mn
Bit rate mode : Constant
Bit rate : 192 Kbps
Channel(s) : 2 channels
Channel positions : Front: L R
Sampling rate : 48.0 KHz
Compression mode : Lossy
Stream size : 118 MiB (1%)
Title : MVO - ICTV
Language : Ukrainian
Default : No
Forced : No
Audio #6
ID : 7
Format : AC-3
Format/Info : Audio Coding 3
Mode extension : CM (complete main)
Format settings, Endianness : Big
Codec ID : A_AC3
Duration : 1h 25mn
Bit rate mode : Constant
Bit rate : 192 Kbps
Channel(s) : 2 channels
Channel positions : Front: L R
Sampling rate : 48.0 KHz
Compression mode : Lossy
Stream size : 118 MiB (1%)
Title : MVO - НЛО-ТВ
Language : Ukrainian
Default : No
Forced : No
Audio #7
ID : 8
Format : AC-3
Format/Info : Audio Coding 3
Mode extension : CM (complete main)
Format settings, Endianness : Big
Codec ID : A_AC3
Duration : 1h 25mn
Bit rate mode : Constant
Bit rate : 448 Kbps
Channel(s) : 6 channels
Channel positions : Front: L C R, Side: L R, LFE
Sampling rate : 48.0 KHz
Compression mode : Lossy
Stream size : 275 MiB (3%)
Language : English
Default : No
Forced : No
Audio #8
ID : 9
Format : AC-3
Format/Info : Audio Coding 3
Mode extension : CM (complete main)
Format settings, Endianness : Big
Codec ID : A_AC3
Duration : 1h 25mn
Bit rate mode : Constant
Bit rate : 448 Kbps
Channel(s) : 2 channels
Channel positions : Front: L R
Sampling rate : 48.0 KHz
Compression mode : Lossy
Stream size : 275 MiB (3%)
Title : Isolated musical score track
Language : English
Default : No
Forced : No
Text #1
ID : 10
Format : UTF-8
Codec ID : S_TEXT/UTF8
Codec ID/Info : UTF-8 Plain Text
Language : Russian
Default : No
Forced : No
Text #2
ID : 11
Format : UTF-8
Codec ID : S_TEXT/UTF8
Codec ID/Info : UTF-8 Plain Text
Language : English
Default : No
Forced : No
Text #3
ID : 12
Format : UTF-8
Codec ID : S_TEXT/UTF8
Codec ID/Info : UTF-8 Plain Text
Title : SDH
Language : English
Default : Yes
Forced : No
Menu
00:00:00.000 : en:00:00:00.000
00:01:16.358 : en:00:01:16.358
00:27:59.118 : en:00:27:59.118
00:43:13.079 : en:00:43:13.079
00:56:28.639 : en:00:56:28.639
01:12:24.560 : en:01:12:24.560
01:24:44.720 : en:01:24:44.720
[Профиль] [ЛС]
Кто просматривает тему:

Форум Тема Автор Размер
Chanson (Шансон) VA - В десяточку! Лучшие блатные песни - 2015, MP3, 256 kbps достали все 697 MB
Документальные HD 80-е: Десятилетие, которое сотворило нас / The 80s: The Decade That Made Us (Джонатан Рудд / Jonathan Rudd) (1-8 из ? серий) [Документальный, DVB-S2 Remux 1080i] VO TorrentFilm 23.7 GB
Современная история CNN: Семидесятые / The Seventies [серии 1-8 из 8] (Кристофер Коуэн / Christopher G. Cowen, Кирк Сэдаски / Kirk Saduski) [2015 г., Документальный, история, SATRip] skorpionN 4.65 GB
Современная история CNN: Шестидесятые / The Sixties [серии 1-10 из 10] (Кристофер Коуэн / Christopher G. Cowen, Кирк Сэдаски / Kirk Saduski) [2013 г., Документальный, история, SATRip] skorpionN 5.63 GB
Компьютерная литература Андрианов В. - Десятипальцевый метод печати на компьютере. 2-е издание (2014) PDF Garik014 16 MB
Отечественные мультфильмы В тридесятом веке (Владимир Самсонов) [1972, мультфильм, DVB] painkiller 443 MB
Отечественные cериалы Восьмидесятые [S01-05] (2011-2015) DVB Russian Mafia 61.17 GB
Отечественные cериалы Восьмидесятые [S01-06] (2011-2016) SATRip достали все 30.53 GB
Показать сообщения:    

Текущее время: Сегодня 21:00

Часовой пояс: GMT



Вы не можете начинать темы
Вы не можете отвечать на сообщения
Вы не можете редактировать свои сообщения
Вы не можете удалять свои сообщения
Вы не можете голосовать в опросах
Вы не можете прикреплять файлы к сообщениям
Вы не можете скачивать файлы