Десятидюймовый герой / Ten Inch Hero (Дэвид Маккэй / David Mackay) [2006, США, Драма, Мелодрама, Комедия, WEB-DLRip-AVC] MVO (LostFilm) + MVO (FarGate) + Orig + Subs (Rus, Eng)

 
Автор Сообщение

reversefile ®

Пол:

Стаж: 4 года 5 месяцев

Сообщений: 842

Откуда: ReverseFile.org



Награды: Нет

Торрент-статистика

Создавать темы 13-Авг-2014 10:08

[Цитировать]

Десятидюймовый герой / Ten Inch Hero«Остановись. Съешь сэндвич. Влюбись.»- Страна: США
Жанр: Драма, Мелодрама, Комедия
Год выпуска: 2006
Продолжительность: 01:42:05-Перевод #1: Профессиональный (многоголосый закадровый, LostFilm)
Перевод #2: Профессиональный (многоголосый закадровый, FarGate)
Оригинальная аудиодорожка: Английский
Cубтитры: Русские (форсированные (надписи, песни); полные (fozzy412); полные (sheep и Алисса); полные (Amarillis); полные (SDH)), Английские (полные) (*srt)-Режиссер: Дэвид Маккэй / David Mackay-В ролях: Элизабет Арнуа, Клеа ДюВалл, Шон Патрик Флэнери, Дженсен Эклс, Дэннил Эклс, Элис Крайдж, Джон До, Шон Уинг, Адаир Тишлер, Джордан Бэлфи и др.-Описание:Герои фильма, молодые люди, работают в прибрежной закусочной серфингиста Тракера, любителя стиля 1960-х. Художница Пайпер разыскивает ребенка, которого когда-то отдала на усыновление. Застенчивая и робкая Джен погружена в роман, проходящий заочно, через интернет. А сексуально ненасытная Тиш, не пропускающая мимо красавцев, ищет истинную любовь. И, наконец, Пристли — бойкий парень с панковским ирокезом на голове — держит в себе чувства и серьезные мысли, укрывшись за маской хохмача.-Автор: AngelOfTrue-Качество видео: WEB-DLRip-AVC | Исходник WEB-DLRip 720p
Формат видео: MKV-Видео: 1152x650 (16:9), 23,976 fps, x264 ~2110 kbps avg, 0.118 bit/pixel
Аудио #1: AC3 Dolby Digital / 48 KHz / 192 kbps / 2/0 (L,R) ch| MVO (LostFilm)
Аудио #2: AC3 Dolby Digital / 48 KHz / 192 kbps / 2/0 (L,R) ch| MVO (FarGate)
Аудио #3: AC3 Dolby Digital / 48 KHz / 384 kbps / 3/2 (L,C,R,l,r) + LFE ch| Original (English)-
-

x264 log

raw [info]: 1152x650p 1:1 @ 24000/1001 fps (cfr)
x264 [warning]: --psnr used with psy on: results will be invalid!
x264 [warning]: --tune psnr should be used if attempting to benchmark psnr!
x264 [info]: using SAR=1/1
x264 [info]: using cpu capabilities: MMX2 SSE2Fast SSSE3 SSE4.2 AVX AVX2 FMA3 LZCNT BMI2
x264 [info]: profile High, level 4.0
x264 [info]: frame I:1592 Avg QP:17.45 size: 69675 PSNR Mean Y:47.39 U:50.67 V:52.27 Avg:48.22 Global:47.74
x264 [info]: frame P:36556 Avg QP:20.38 size: 22366 PSNR Mean Y:45.80 U:50.69 V:51.92 Avg:46.84 Global:46.42
x264 [info]: frame B:108720 Avg QP:22.11 size: 6309 PSNR Mean Y:45.66 U:51.96 V:53.31 Avg:46.74 Global:46.20
x264 [info]: consecutive B-frames: 1.7% 3.0% 2.6% 79.2% 4.0% 5.0% 1.3% 0.4% 0.3% 2.2% 0.1% 0.3%
x264 [info]: mb I I16..4: 4.5% 82.9% 12.6%
x264 [info]: mb P I16..4: 1.2% 8.3% 1.0% P16..4: 37.8% 38.1% 9.0% 0.6% 0.0% skip: 4.0%
x264 [info]: mb B I16..4: 0.2% 0.9% 0.1% B16..8: 31.6% 14.6% 1.7% direct: 4.3% skip:46.5% L0:37.7% L1:49.4% BI:12.9%
x264 [info]: 8x8 transform intra:79.1% inter:65.3%
x264 [info]: direct mvs spatial:99.5% temporal:0.5%
x264 [info]: coded y,uvDC,uvAC intra: 79.8% 73.9% 36.8% inter: 18.6% 16.0% 3.9%
x264 [info]: i16 v,h,dc,p: 13% 13% 4% 70%
x264 [info]: i8 v,h,dc,ddl,ddr,vr,hd,vl,hu: 12% 8% 5% 9% 13% 15% 12% 13% 14%
x264 [info]: i4 v,h,dc,ddl,ddr,vr,hd,vl,hu: 16% 9% 5% 7% 14% 16% 12% 11% 11%
x264 [info]: i8c dc,h,v,p: 30% 27% 22% 20%
x264 [info]: Weighted P-Frames: Y:2.5% UV:1.7%
x264 [info]: ref P L0: 54.9% 9.1% 14.8% 5.9% 4.5% 3.5% 2.8% 1.7% 1.4% 1.2% 0.0% 0.0%
x264 [info]: ref B L0: 81.3% 10.1% 3.6% 1.7% 1.2% 0.9% 0.7% 0.3% 0.2%
x264 [info]: ref B L1: 96.5% 3.5%
x264 [info]: SSIM Mean Y:0.9845843 (18.120db)
x264 [info]: PSNR Mean Y:45.712 U:51.629 V:52.956 Avg:46.783 Global:46.269 kb/s:2108.44

-

MediaInfo

Формат : Matroska
Версия формата : Version 4 / Version 2
Размер файла : 2,05 Гбайт
Продолжительность : 1 ч. 42 м.
Общий поток : 2880 Кбит/сек
Дата кодирования : UTC 2014-03-19 10:42:12
Программа кодирования : mkvmerge v6.1.0 ('Old Devil') built on Mar 4 2013 09:10:42
Библиотека кодирования : libebml v1.3.0 + libmatroska v1.4.0
Видео
Идентификатор : 1
Формат : AVC
Формат/Информация : Advanced Video Codec
Профиль формата : High@L4.0
Параметр CABAC формата : Да
Параметр ReFrames формата : 10 кадров
Идентификатор кодека : V_MPEG4/ISO/AVC
Продолжительность : 1 ч. 42 м.
Битрейт : 2110 Кбит/сек
Ширина : 1152 пикселя
Высота : 650 пикселей
Соотношение сторон : 16:9
Режим частоты кадров : Постоянный
Частота кадров : 23,976 кадра/сек
Цветовое пространство : YUV
Субдискретизация насыщенности : 4:2:0
Битовая глубина : 8 бит
Тип развёртки : Прогрессивная
Бит/(Пиксели*Кадры) : 0.118
Размер потока : 1,46 Гбайт (71%)
Заголовок : Ten.Inch.Hero.2006.TRIPLE.WEB-DLRip-AVC.AC3.-AngelOfTrue
Библиотека кодирования : x264 core 140 r2377kMod 1ca7bb9
Настройки программы : cabac=1 / ref=10 / deblock=1:-2:-1 / analyse=0x3:0x133 / me=umh / subme=11 / psy=1 / fade_compensate=0.00 / psy_rd=1.00:0.00 / mixed_ref=1 / me_range=32 / chroma_me=1 / trellis=2 / 8x8dct=1 / cqm=0 / deadzone=21,11 / fast_pskip=0 / chroma_qp_offset=-2 / threads=6 / lookahead_threads=1 / sliced_threads=0 / nr=0 / decimate=0 / interlaced=0 / bluray_compat=0 / constrained_intra=0 / fgo=0 / bframes=11 / b_pyramid=2 / b_adapt=2 / b_bias=0 / direct=3 / weightb=1 / open_gop=0 / weightp=2 / keyint=240 / keyint_min=23 / scenecut=40 / intra_refresh=0 / rc_lookahead=60 / rc=2pass / mbtree=0 / bitrate=2110 / ratetol=1.0 / qcomp=0.65 / qpmin=0 / qpmax=69 / qpstep=4 / cplxblur=20.0 / qblur=0.5 / vbv_maxrate=20000 / vbv_bufsize=25000 / nal_hrd=none / filler=0 / ip_ratio=1.35 / pb_ratio=1.25 / aq=2:1.00
Язык : Russian
Default : Да
Forced : Нет
Основные цвета : BT.709
Характеристики трансфера : BT.709
Аудио #1
Идентификатор : 2
Формат : AC-3
Формат/Информация : Audio Coding 3
Расширение режима : CM (complete main)
Параметр Endianness формата : Big
Идентификатор кодека : A_AC3
Продолжительность : 1 ч. 42 м.
Вид битрейта : Постоянный
Битрейт : 192 Кбит/сек
Каналы : 2 канала
Расположение каналов : Front: L R
Частота : 48,0 КГц
Битовая глубина : 16 бит
Метод сжатия : С потерями
Размер потока : 140 Мбайт (7%)
Заголовок : MVO (LostFilm)
Язык : Russian
Default : Да
Forced : Нет
Аудио #2
Идентификатор : 3
Формат : AC-3
Формат/Информация : Audio Coding 3
Расширение режима : CM (complete main)
Параметр Endianness формата : Big
Идентификатор кодека : A_AC3
Продолжительность : 1 ч. 42 м.
Вид битрейта : Постоянный
Битрейт : 192 Кбит/сек
Каналы : 2 канала
Расположение каналов : Front: L R
Частота : 48,0 КГц
Битовая глубина : 16 бит
Метод сжатия : С потерями
Размер потока : 140 Мбайт (7%)
Заголовок : MVO (FarGate)
Язык : Russian
Default : Нет
Forced : Нет
Аудио #3
Идентификатор : 4
Формат : AC-3
Формат/Информация : Audio Coding 3
Расширение режима : CM (complete main)
Параметр Endianness формата : Big
Идентификатор кодека : A_AC3
Продолжительность : 1 ч. 42 м.
Вид битрейта : Постоянный
Битрейт : 384 Кбит/сек
Каналы : 6 каналов
Расположение каналов : Front: L C R, Side: L R, LFE
Частота : 48,0 КГц
Битовая глубина : 16 бит
Метод сжатия : С потерями
Размер потока : 280 Мбайт (13%)
Заголовок : Original (English)
Язык : English
Default : Нет
Forced : Нет
Текст #1
Идентификатор : 5
Формат : UTF-8
Идентификатор кодека : S_TEXT/UTF8
Идентификатор кодека/Информация : UTF-8 Plain Text
Заголовок : For (надписи, песни)
Язык : Russian
Default : Да
Forced : Да
Текст #2
Идентификатор : 6
Формат : UTF-8
Идентификатор кодека : S_TEXT/UTF8
Идентификатор кодека/Информация : UTF-8 Plain Text
Заголовок : Full (fozzy412)
Язык : Russian
Default : Нет
Forced : Нет
Текст #3
Идентификатор : 7
Формат : UTF-8
Идентификатор кодека : S_TEXT/UTF8
Идентификатор кодека/Информация : UTF-8 Plain Text
Заголовок : Full (sheep и Алисса)
Язык : Russian
Default : Нет
Forced : Нет
Текст #4
Идентификатор : 8
Формат : UTF-8
Идентификатор кодека : S_TEXT/UTF8
Идентификатор кодека/Информация : UTF-8 Plain Text
Заголовок : Full (Amarillis)
Язык : Russian
Default : Нет
Forced : Нет
Текст #5
Идентификатор : 9
Формат : UTF-8
Идентификатор кодека : S_TEXT/UTF8
Идентификатор кодека/Информация : UTF-8 Plain Text
Заголовок : Full (SDH)
Язык : Russian
Default : Нет
Forced : Нет
Текст #6
Идентификатор : 10
Формат : UTF-8
Идентификатор кодека : S_TEXT/UTF8
Идентификатор кодека/Информация : UTF-8 Plain Text
Заголовок : Full (English)
Язык : English
Default : Нет
Forced : Нет

-

Скриншоты



---
[Профиль] [ЛС]

Создавать темы 06-Авг-2015 23:18 (спустя 11 месяцев 24 дня)

Топик был перенесен из форума Фильмы до 2014 года в форум Фильмы до 2012 года
sergej644
 
Кто просматривает тему:

Форум Тема Автор Размер
Chanson (Шансон) VA - В десяточку! Лучшие блатные песни - 2015, MP3, 256 kbps достали все 697 MB
Документальные HD 80-е: Десятилетие, которое сотворило нас / The 80s: The Decade That Made Us (Джонатан Рудд / Jonathan Rudd) (1-8 из ? серий) [Документальный, DVB-S2 Remux 1080i] VO TorrentFilm 23.7 GB
Современная история CNN: Семидесятые / The Seventies [серии 1-8 из 8] (Кристофер Коуэн / Christopher G. Cowen, Кирк Сэдаски / Kirk Saduski) [2015 г., Документальный, история, SATRip] skorpionN 4.65 GB
Современная история CNN: Шестидесятые / The Sixties [серии 1-10 из 10] (Кристофер Коуэн / Christopher G. Cowen, Кирк Сэдаски / Kirk Saduski) [2013 г., Документальный, история, SATRip] skorpionN 5.63 GB
Компьютерная литература Андрианов В. - Десятипальцевый метод печати на компьютере. 2-е издание (2014) PDF Garik014 16 MB
Отечественные мультфильмы В тридесятом веке (Владимир Самсонов) [1972, мультфильм, DVB] painkiller 443 MB
Отечественные cериалы Восьмидесятые [S01-05] (2011-2015) DVB Russian Mafia 61.17 GB
Отечественные cериалы Восьмидесятые [S01-06] (2011-2016) SATRip достали все 30.53 GB
Показать сообщения:    

Текущее время: Сегодня 20:19

Часовой пояс: GMT



Вы не можете начинать темы
Вы не можете отвечать на сообщения
Вы не можете редактировать свои сообщения
Вы не можете удалять свои сообщения
Вы не можете голосовать в опросах
Вы не можете прикреплять файлы к сообщениям
Вы не можете скачивать файлы