Деревянный театр на Каменном острове (RTGHD) [2013, Документальный, HDTV 1080i]

 
Автор Сообщение

TorrentFilm ®

Пол:

Стаж: 2 года

Сообщений: 7741



Награды: Нет

Торрент-статистика

Создавать темы 05-Фев-2015 00:01

[Цитировать]

Деревянный театр на Каменном острове
Год выпуска: 2013
Страна: Россия
Жанр: Документальный
Продолжительность: 00:26:37
Перевод: Не требуется
Описание: В Санкт-Петербурге, на Каменном острове сохранился один из немногих в Европе деревянных театров начала 19 века. Он был сооружен всего за 40 дней, на один летний сезон для аристократов, имевших дачи в пригороде имперского Петербурга. Сам архитектор говорил, что здание, построенное на скорую руку, будет стоять не больше 7 лет. В итоге деревянный театр существует почти два века. Впрочем, бревенчатое сооружение дошло до наших дней в таком плачевном состоянии, что его едва не пустили под снос. Но реставраторы сумели не только спасти памятник деревянного зодчества, но и приспособить его под работу современной театральной труппы. Сцена-трансформер, два новых подземных этажа и подлинная древесина 19 века. Масштабный архитектурный эксперимент вернул старинный Каменноостровский театр на петербургские афиши.
Доп. информация: IPTV Remux (запись потока без перекодирования).
Тип релиза: HDTV 1080i
Контейнер: TS
Видео: AVC H.264, 1920x1080i (16:9), 25 fps, 7415 kbps, 0.143 bits/pixel
Аудио: MPEG Audio, 2 channels, 192 kbps, 48KHz

MediaInfo

GeneralID : 1 (0x1)Complete name : Деревянный театр на Каменном острове.tsFormat : MPEG-TSFile size : 1.49 GiBDuration : 26mn 37sOverall bit rate mode : VariableOverall bit rate : 8 005 Kbps
VideoID : 601 (0x259)Menu ID : 1 (0x1)Format : AVCFormat/Info : Advanced Video CodecFormat profile : Main@L4.0Format settings, CABAC : YesFormat settings, ReFrames : 3 framesCodec ID : 27Duration : 26mn 37sBit rate : 7 415 KbpsWidth : 1 920 pixelsHeight : 1 080 pixelsDisplay aspect ratio : 16:9Frame rate : 25.000 fpsStandard : ComponentColor space : YUVChroma subsampling : 4:2:0Bit depth : 8 bitsScan type : InterlacedScan order : Top Field FirstBits/(Pixel*Frame) : 0.143Stream size : 1.38 GiB (93%)Color primaries : BT.709Transfer characteristics : BT.709Matrix coefficients : BT.709
AudioID : 602 (0x25A)Menu ID : 1 (0x1)Format : MPEG AudioFormat version : Version 1Format profile : Layer 2Codec ID : 3Duration : 26mn 37sBit rate mode : ConstantBit rate : 192 KbpsChannel(s) : 2 channelsSampling rate : 48.0 KHzCompression mode : LossyStream size : 36.6 MiB (2%)Language : Russian

Скриншоты

[Профиль] [ЛС]
Показать сообщения:    

Текущее время: Сегодня 14:27

Часовой пояс: GMT



Вы не можете начинать темы
Вы не можете отвечать на сообщения
Вы не можете редактировать свои сообщения
Вы не можете удалять свои сообщения
Вы не можете голосовать в опросах
Вы не можете прикреплять файлы к сообщениям
Вы не можете скачивать файлы