Деревенский детектив (1968) DVDRip-AVC от ExKinoRay

 
Автор Сообщение

sergej644 ®

Пол:

Стаж: 4 года 11 месяцев

Сообщений: 6041

Откуда: Soviet Union



Награды: Нет

Торрент-статистика

Создавать темы 05-Авг-2015 18:03

[Цитировать]

Информация о фильме
Название: Деревенский детектив
Год выхода: 1968
Жанр: Детектив
Режиссер: Иван Лукинский
В ролях: Михаил Жаров, Татьяна Пельтцер, Роман Ткачук, Лидия Смирнова, Ирина Зарубина, Анатолий Игнатьев, Наталья Сайко, Николай Скоробогатов, Юрий Смирнов, Афанасий Белов, Александра Харитонова, Анатолий Кубацкий, Георгий Слабиняк, Николай Маликов, Александр Милютин, Вадим Власов, Владимир Пицек, Людмила Ильина
О фильме: У заведующего клубом украли аккордеон. Невероятнее происшествие для небольшой сибирской деревни, где все друг друга знают и все у всех на виду! За расследование этого темного дела берется Федор Иванович Анискин, участковый милиционер… Фильм, снятый по одноименной повести В. Липатова, завоевал настоящий всенародный успех. Анискин в неподражаемом исполнении Михаила Жарова настолько понравился и зрителям, и критике, что впоследствии были сняты еще два фильма о заботливом и отзывчивом «деревенском детективе», которому до всего и до всех есть дело.
Страна: СССР
Продолжительность: 01:21:59
Перевод: не требуется
Файл
Кодек: MKV
Качество: DVDRip-AVC
Видео: MPEG-4 AVC, 2350 Кбит/с, 688x442@978x442
Звук: AC3, 6 ch, 388 Кбит/с

Скриншоты

Медиа-Инфо

Общее
Уникальный идентификатор : 224915229791828026028452486716363327143 (0xA93518FC585D4926834EA213299B46A7)
Полное имя : R:МОИ РИПЫДеревенский детектив_1968-DVDRip-AVC.mkv
Формат : Matroska
Версия формата : Version 2
Размер файла : 1,57 Гбайт
Продолжительность : 1 ч. 21 м.
Общий поток : 2736 Кбит/сек
Название фильма : Back to the Future
Дата кодирования : UTC 2015-04-29 14:15:46
Программа кодирования : mkvmerge v5.8.0 ('No Sleep / Pillow') built on Sep 2 2012 15:37:04
Библиотека кодирования : libebml v1.2.3 + libmatroska v1.3.0
Видео
Идентификатор : 1
Формат : AVC
Формат/Информация : Advanced Video Codec
Профиль формата : High@L4.1
Параметр CABAC формата : Да
Параметр ReFrames формата : 14 кадров
Идентификатор кодека : V_MPEG4/ISO/AVC
Продолжительность : 1 ч. 21 м.
Битрейт : 2350 Кбит/сек
Ширина : 688 пикселей
Высота : 442 пикселя
Соотношение сторон : 2,2:1
Соотношение сторон в оригинале : 2,2:1
Режим частоты кадров : Постоянный
Частота кадров : 25,000 кадров/сек
Цветовое пространство : YUV
Субдискретизация насыщенности : 4:2:0
Битовая глубина : 8 бит
Тип развёртки : Прогрессивная
Бит/(Пиксели*Кадры) : 0.309
Размер потока : 1,32 Гбайт (84%)
Библиотека кодирования : x264 core 146 r2538 121396c
Настройки программы : cabac=1 / ref=14 / deblock=1:-2:-2 / analyse=0x3:0x133 / me=umh / subme=10 / psy=1 / psy_rd=1.05:0.15 / mixed_ref=1 / me_range=32 / chroma_me=1 / trellis=2 / 8x8dct=1 / cqm=0 / deadzone=21,11 / fast_pskip=0 / chroma_qp_offset=-3 / threads=12 / lookahead_threads=2 / sliced_threads=0 / nr=0 / decimate=0 / interlaced=0 / bluray_compat=0 / constrained_intra=0 / bframes=9 / b_pyramid=2 / b_adapt=2 / b_bias=0 / direct=3 / weightb=1 / open_gop=0 / weightp=2 / keyint=250 / keyint_min=25 / scenecut=40 / intra_refresh=0 / rc=2pass / mbtree=0 / bitrate=2350 / ratetol=1.0 / qcomp=0.65 / qpmin=0 / qpmax=39 / qpstep=4 / cplxblur=20.0 / qblur=0.5 / ip_ratio=1.40 / pb_ratio=1.30 / aq=1:1.00
Язык : English
Default : Да
Forced : Нет
Цветовой диапазон : Limited
Основные цвета : BT.601 PAL
Характеристики трансфера : BT.470 System B, BT.470 System G
Коэффициенты матрицы : BT.601
Аудио
Идентификатор : 2
Формат : AC-3
Формат/Информация : Audio Coding 3
Расширение режима : CM (complete main)
Параметр Endianness формата : Big
Идентификатор кодека : A_AC3
Продолжительность : 1 ч. 21 м.
Вид битрейта : Постоянный
Битрейт : 384 Кбит/сек
Каналы : 6 каналов
Расположение каналов : Front: L C R, Side: L R, LFE
Частота : 48,0 КГц
Битовая глубина : 16 бит
Метод сжатия : С потерями
Задержка видео : 150 мс.
Размер потока : 225 Мбайт (14%)
Язык : Russian
Default : Да
Forced : Нет
Автор релиза:
[Профиль] [ЛС]

Создавать темы 06-Авг-2015 22:00 (спустя 1 день 3 часа)

Топик был перенесен из форума Кино СССР в форум Кино СССР
sergej644
 
Показать сообщения:    

Текущее время: Сегодня 21:02

Часовой пояс: GMT



Вы не можете начинать темы
Вы не можете отвечать на сообщения
Вы не можете редактировать свои сообщения
Вы не можете удалять свои сообщения
Вы не можете голосовать в опросах
Вы не можете прикреплять файлы к сообщениям
Вы не можете скачивать файлы