День Святого Валентина / Valentine\'s Day (Гэрри Маршалл / Garry Marshall) [2010, США, мелодрама, комедия, BDRip] Dub

 
Автор Сообщение

painkiller ®

Стаж: 2 года 3 месяца

Сообщений: 582



Награды: Нет

Торрент-статистика

Создавать темы 15-Авг-2014 01:08

[Цитировать]

День Святого Валентина / Valentine's Day
Страна: США
Жанр: мелодрама, комедия
Год выпуска: 2010
Продолжительность: 02:04:38
Перевод: Профессиональный (дублированный)
Cубтитры: есть надписи
Режиссер: Гэрри Маршалл / Garry Marshall
В ролях: Джессика Альба, Кэти Бейтс, Джессика Бил, Брэдли Купер, Эрик Дэйн, Патрик Демпси, Гектор Элизондо, Джейми Фокс, Дженнифер Гарнер, Тофер Грейс, Энн Хэтэуэй, Картер Дженкинс, Эштон Кутчер, Куин Латифа, Тэйлор Лотнер, Джордж Лопес, Ширли МакЛейн, Эмма Робертс, Джулия Робертс, Брайс Робинсон, Тейлор Свифт
Описание: Судьбы многих влюбленных и одиноких сердец в Лос-Анджелесе переплетаются в ожидании одного единственного Дня — Дня Всех Влюбленных — Дня Святого Валентина.
Доп. информация:
Качество видео: BDRip | Beonikol / 1080p BD-Remux
Формат видео: AVI
Видео: 720x400 (1.80:1), 23.976 fps, XviD build 73 ~1277 kbps avg, 0.19 bit/pixel
Аудио: 48 kHz, AC3 Dolby Digital, 3/2 (L,C,R,l,r) + LFE ch, ~384 kbps
Формат субтитров: softsub (SRT)

MediaInfo

Общее
Полное имя : C:\Documents and Settings\Пользователь\Рабочий стол\Торрентс.ру\Valentine's.Day.2010.BDRip.Dub.Sub_by_LBS\Valentine's.Day.2010.BDRip.Dub_by_LBS.avi
Формат : AVI
Формат/Информация : Audio Video Interleave
Размер файла : 1,45 Гбайт
Продолжительность : 2 ч. 4 м.
Общий поток : 1671 Кбит/сек
Режиссёр : Last Boy Scout
Программа кодирования : VirtualDubMod 1.5.10.3 | www.virtualdub-fr.org || (build 2550/release)
Правообладатель : torrentfilm.net 21.02.2014
Примечание : BDRip Dub + sub (надписи)
Видео
Идентификатор : 0
Формат : MPEG-4 Visual
Профиль формата : Advanced Simple@L5
Параметр BVOP формата : 1
Параметр QPel формата : Нет
Параметр GMC формата : Без точки перехода
Параметр матрицы формата : Выборочная
Идентификатор кодека : XVID
Идентификатор кодека/Подсказка : XviD
Продолжительность : 2 ч. 4 м.
Битрейт : 1278 Кбит/сек
Ширина : 720 пикселей
Высота : 400 пикселей
Соотношение сторон : 16:9
Частота кадров : 23,976 кадра/сек
Цветовое пространство : YUV
Субдискретизация насыщенности : 4:2:0
Битовая глубина : 8 бит
Тип развёртки : Прогрессивная
Метод сжатия : С потерями
Бит/(Пиксели*Кадры) : 0.185
Размер потока : 1,11 Гбайт (76%)
Библиотека кодирования : XviD 73
Аудио
Идентификатор : 1
Формат : AC-3
Формат/Информация : Audio Coding 3
Расширение режима : CM (complete main)
Параметр Endianness формата : Big
Идентификатор кодека : 2000
Продолжительность : 2 ч. 4 м.
Вид битрейта : Постоянный
Битрейт : 384 Кбит/сек
Каналы : 6 каналов
Расположение каналов : Front: L C R, Side: L R, LFE
Частота : 48,0 КГц
Битовая глубина : 16 бит
Метод сжатия : С потерями
Размер потока : 342 Мбайт (23%)
Выравнивание : Разделение по промежуткам
Продолжительность промежутка : 42 мс. (1,00 видеокадр)
Время предзагрузки промежутка : 500 мс.

Скриншоты

Сравнение

http://torrentfilm.net/forum/viewtopic.php?t=2986697
http://screenshotcomparison.com/comparison/63631/picture:4
А также в раздачу добавлены субтитры на надписи

Скриншот с названием и сэмпл

http://multi-up.com/953178
[Профиль] [ЛС]

Создавать темы 06-Авг-2015 23:11 (спустя 11 месяцев 22 дня)

Топик был перенесен из форума Фильмы до 2014 года в форум Фильмы до 2012 года
sergej644
 

Создавать темы 12-Июн-2016 07:54 (спустя 1 год 9 месяцев)

Топик был перенесен из форума Фильмы 2011 года в форум Фильмы 2010 года
Russian Mafia
 
Кто просматривает тему:

Показать сообщения:    

Текущее время: Сегодня 22:30

Часовой пояс: GMT



Вы не можете начинать темы
Вы не можете отвечать на сообщения
Вы не можете редактировать свои сообщения
Вы не можете удалять свои сообщения
Вы не можете голосовать в опросах
Вы не можете прикреплять файлы к сообщениям
Вы не можете скачивать файлы