День радио (Дмитрий Дьяченко) [2008, Россия, комедия, BDRip 720p]

 
Автор Сообщение

TorrentFilm ®

Пол:

Стаж: 2 года

Сообщений: 7741



Награды: Нет

Торрент-статистика

Создавать темы 16-Фев-2016 00:08

[Цитировать]

День радио- Страна: Россия
Жанр: комедия
Год выпуска: 2008
Продолжительность: 01:43:02
Перевод: Не требуется
Cубтитры: нет
Оригинальная аудиодорожка: русский
Режиссер: Дмитрий Дьяченко
В ролях: Леонид Барац, Александр Демидов, Камиль Ларин, Ростислав Хаит, Михаил Козырев, Нонна Гришаева, Дмитрий Марьянов, Николай Фоменко, Максим Виторган, Анна Касаткина-Барац, Михаил Полицеймако, Анастасия Сапожникова, Фёдор Добронравов, Алексей Хардиков, Михаил Бескоровайный, Константин Чепурин, Эммануил Виторган, Георгий Мартиросян, Сергей Беляев, Владимир Шахрин, Владимир Бегунов, Алексей Кортнев, Илья Лагутенко, Олег Скрипка, Диана Арбенина, Максим Покровский, Ольга Кузина, Сергей Мазаев, Сергей Бабкин, Игорь Гоцманов, Амалия Мордвинова
Описание: Один день из жизни модной московской радиостанции. Не самый лучший день — рушатся все планы, все валится из рук… И именно в тот момент, когда на станции в прямом эфире вот-вот должен начаться «живой» марафон, а популярные российские рок-группы придут в эфир, чтобы поддержать… впрочем, это уже неважно, потому что тема марафона перехвачена конкурентами и активно обсуждается в эфире «вражеской» радиостанции. Но марафон отменять нельзя!
Рабочий день обещает стать последним для всего творческого состава, если срочно не найдется новая тема. А тем временем из Находки вышел маленький катер с лучшими представителями Благовещенского областного цирка — медведь, обезьяна, два пуделя, петух, козел, кабан, которые плывут на гастроли в Японию. И если бы кто-то из команды катера не слил налево полбака солярки, а еще кто-то — еще полбака, то они бы, возможно, даже и доплыли бы.

Тип релиза: BDRip 720р (исходник - Blu-ray)
Контейнер: MKV
Видео: 1280x692 (1.85:1), 23.976 fps, x264@L4.1 ~6740 kbps avg
Аудио: 48 kHz, DTS, 3/2 (L,C,R,l,r) + LFE ch, ~1509.00 kbps avg

MediaInfo | x264 log

Format : Matroska
Format version : Version 4 / Version 2
File size : 5.94 GiB
Duration : 1h 43mn
Overall bit rate : 8 250 Kbps
Movie name : День радио (2008) :: AFM ::
Encoded date : UTC 2016-02-14 17:23:21
Writing application : mkvmerge v8.3.0 ('Over the Horizon') 32bit
Writing library : libebml v1.3.1 + libmatroska v1.4.2
DURATION : 01:43:01.600000000
NUMBER_OF_FRAMES : 579525
NUMBER_OF_BYTES : 1166004300
_STATISTICS_WRITING_APP : mkvmerge v8.3.0 ('Over the Horizon') 32bit
_STATISTICS_WRITING_DATE_UTC : 2016-02-14 17:23:21
_STATISTICS_TAGS : BPS DURATION NUMBER_OF_FRAMES NUMBER_OF_BYTES
Video
ID : 1
Format : AVC
Format/Info : Advanced Video Codec
Format profile : High@L4.1
Format settings, CABAC : Yes
Format settings, ReFrames : 9 frames
Codec ID : V_MPEG4/ISO/AVC
Duration : 1h 43mn
Bit rate : 6 740 Kbps
Width : 1 280 pixels
Height : 692 pixels
Display aspect ratio : 1.85:1
Frame rate mode : Constant
Frame rate : 23.976 fps
Color space : YUV
Chroma subsampling : 4:2:0
Bit depth : 8 bits
Scan type : Progressive
Bits/(Pixel*Frame) : 0.317
Stream size : 4.73 GiB (80%)
Title : BDRip by AFM [RuTracker.org]
Writing library : x264 core 148 r2665kMod a01e339
Encoding settings : cabac=1 / ref=9 / deblock=1:-2:-2 / analyse=0x3:0x113 / me=umh / subme=10 / psy=1 / fade_compensate=0.00 / psy_rd=1.00:0.00 / mixed_ref=1 / me_range=32 / chroma_me=1 / trellis=2 / 8x8dct=1 / cqm=0 / deadzone=21,11 / fast_pskip=0 / chroma_qp_offset=-2 / threads=6 / lookahead_threads=1 / sliced_threads=0 / nr=0 / decimate=0 / interlaced=0 / bluray_compat=0 / constrained_intra=0 / fgo=0 / bframes=8 / b_pyramid=2 / b_adapt=2 / b_bias=0 / direct=3 / weightb=1 / open_gop=0 / weightp=2 / keyint=250 / keyint_min=23 / scenecut=40 / intra_refresh=0 / rc_lookahead=40 / rc=2pass / mbtree=0 / bitrate=6740 / ratetol=1.0 / qcomp=0.65 / qpmin=0 / qpmax=69 / qpstep=4 / cplxblur=20.0 / qblur=0.5 / vbv_maxrate=50000 / vbv_bufsize=62500 / nal_hrd=none / filler=0 / ip_ratio=1.35 / pb_ratio=1.30 / aq=2:0.90
Language : Russian
Default : Yes
Forced : No
DURATION : 01:43:01.551000000
NUMBER_OF_FRAMES : 148209
NUMBER_OF_BYTES : 5206907395
_STATISTICS_WRITING_APP : mkvmerge v8.3.0 ('Over the Horizon') 32bit
_STATISTICS_WRITING_DATE_UTC : 2016-02-14 17:23:21
_STATISTICS_TAGS : BPS DURATION NUMBER_OF_FRAMES NUMBER_OF_BYTES
Audio
ID : 2
Format : DTS
Format/Info : Digital Theater Systems
Mode : 16
Format settings, Endianness : Big
Codec ID : A_DTS
Duration : 1h 43mn
Bit rate mode : Constant
Bit rate : 1 509 Kbps
Channel(s) : 6 channels
Channel positions : Front: L C R, Side: L R, LFE
Sampling rate : 48.0 KHz
Bit depth : 16 bits
Compression mode : Lossy
Stream size : 1.09 GiB (18%)
Title : DTS 5.1 ~1509 kbps
Language : Russian
Default : Yes
Forced : No

x264

x264 [info]: frame I:1102 Avg QP:15.84 size:122451
x264 [info]: frame P:32160 Avg QP:18.03 size: 59603
x264 [info]: frame B:114947 Avg QP:20.17 size: 27449
x264 [info]: consecutive B-frames: 1.6% 3.5% 8.5% 17.3% 19.5% 42.6% 5.1% 0.9% 1.0%
x264 [info]: mb I I16..4: 3.6% 83.9% 12.4%
x264 [info]: mb P I16..4: 1.0% 21.3% 2.0% P16..4: 33.5% 26.7% 11.6% 0.0% 0.0% skip: 3.9%
x264 [info]: mb B I16..4: 0.1% 2.0% 0.2% B16..8: 43.5% 14.7% 3.9% direct:14.9% skip:20.9% L0:41.8% L1:42.9% BI:15.3%
x264 [info]: 8x8 transform intra:87.3% inter:66.2%
x264 [info]: direct mvs spatial:99.2% temporal:0.8%
x264 [info]: coded y,uvDC,uvAC intra: 92.4% 86.0% 59.2% inter: 49.8% 40.1% 11.6%
x264 [info]: i16 v,h,dc,p: 29% 11% 12% 48%
x264 [info]: i8 v,h,dc,ddl,ddr,vr,hd,vl,hu: 11% 8% 8% 10% 13% 13% 13% 12% 12%
x264 [info]: i4 v,h,dc,ddl,ddr,vr,hd,vl,hu: 31% 7% 4% 7% 11% 11% 11% 9% 9%
x264 [info]: i8c dc,h,v,p: 44% 23% 18% 14%
x264 [info]: Weighted P-Frames: Y:1.4% UV:0.6%
x264 [info]: ref P L0: 42.1% 10.1% 17.8% 7.9% 6.5% 5.2% 4.4% 3.0% 2.8% 0.3% 0.0%
x264 [info]: ref B L0: 81.0% 9.1% 3.9% 2.0% 1.6% 1.2% 0.8% 0.3%
x264 [info]: ref B L1: 94.8% 5.2%
x264 [info]: kb/s:6738.64

Скриншоты

[Профиль] [ЛС]
Кто просматривает тему:

Показать сообщения:    

Текущее время: Сегодня 06:12

Часовой пояс: GMT



Вы не можете начинать темы
Вы не можете отвечать на сообщения
Вы не можете редактировать свои сообщения
Вы не можете удалять свои сообщения
Вы не можете голосовать в опросах
Вы не можете прикреплять файлы к сообщениям
Вы не можете скачивать файлы