День независимости / Independence Day (1996) UHD BDRemux 2160p | 4K | HDR | Расширенная версия | P, A

 
Автор Сообщение

Swager ®

Пол:

Стаж: 2 года

Сообщений: 981



Награды: 3 (Подробнее)

Top Releaser 2 (Количество: 1) Mega Seeder 1 (Количество: 1) Mega Seeder 2 (Количество: 1)
Торрент-статистика

Создавать темы 12-Окт-2017 09:58

[Цитировать]

Производство: США / 20th Century Fox Film Corporation
Жанр: фантастика, боевик, приключения
Режиссер: Роланд Эммерих
Продюсер: Дин Девлин, Роланд Эммерих, Уте Эммерих
Актеры: Уилл Смит, Джефф Голдблюм, Билл Пуллман, Мэри МакДоннелл, Джадд Хёрш, Роберт Лоджа, Рэнди Куэйд, Маргарет Колин, Вивика А. Фокс, Джеймс Ребхорн
Описание:
На Земле принимается сигнал, посланный источником явно неземного происхождения. Источник этот приближается, и на «уши» поднимается вся планета. Никто, правда, не ожидал, что инопланетяне окажутся такими огромными и в таком количестве.

Продолжительность: 02:33:34
Качество: UHD BDRemux (HDR)
Перевод: Профессиональный (многоголосый, закадровый) ("Гемини", она же "BD EUR", она же "Супербит"), ("Карусель", она же "Киномания"), (ТК "НТВ"), ("Премьер-видео"), ("Первый канал"). Авторский (А. Гаврилов), (Ю. Живов)
Субтитры: Русские, английские
Видео: H.265/HEVC, 3840x2160p, (16:9), 33.4 Mb/s, 23.976 fps
Аудио: DTS, 6 ch, 768 kbps - Русский, "Гемини", она же "BD EUR", она же "Супербит"
Аудио: DTS-HD MA, 6 ch, 4197 kbps - Русский, "Карусель", она же "Киномания"
Аудио: AC3, 6 ch, 448 kbps - Русский, ТК "НТВ"
Аудио: AC3, 2 ch, 192 kbps - Русский, "Премьер-видео"
Аудио: AC3, 2 ch, 192 kbps - Русский, "Первый канал"
Аудио: AC3, 6 ch, 448 kbps - Русский, А. Гаврилов
Аудио: AC3, 6 ch, 448 kbps - Русский, Ю. Живов
Аудио: DTS-HD MA, 8 ch, 6139 kbps - Английский

Mediainfo:

General
Unique ID : 246722981123093256527937487877655026910 (0xB99D1E23A4355D25A5A7DFC864B8DCDE)
Complete name : ID4_EXTENDED_CUT_HDR_RMX_BLUEBIRD.mkv
Format : Matroska
Format version : Version 4 / Version 2
File size : 49.7 GiB
Duration : 2 h 33 min
Overall bit rate : 46.3 Mb/s
Movie name : ID4_EXTENDED_CUT_HDR_RMX_BLUEBIRD
Encoded date : UTC 2017-10-08 18:51:38
Writing application : mkvmerge v16.0.0 ('Protest') 64-bit
Writing library : libebml v1.3.5 + libmatroska v1.4.8
Cover : Yes
Attachments : cover.png
Video
ID : 1
Format : HEVC
Format/Info : High Efficiency Video Coding
Format profile : Main 10@L5.1@High
Codec ID : V_MPEGH/ISO/HEVC
Duration : 2 h 33 min
Bit rate : 33.4 Mb/s
Width : 3 840 pixels
Height : 2 160 pixels
Display aspect ratio : 16:9
Frame rate mode : Constant
Frame rate : 23.976 (23976/1000) FPS
Original frame rate : 23.976 (24000/1001) FPS
Color space : YUV
Chroma subsampling : 4:2:0 (Type 2)
Bit depth : 10 bits
Bits/(Pixel*Frame) : 0.168
Stream size : 35.8 GiB (72%)
Title : ID4_EXTENDED_CUT_HDR_RMX_BLUEBIRD
Default : Yes
Forced : No
Color range : Limited
Color primaries : BT.2020
Transfer characteristics : SMPTE ST 2084
Matrix coefficients : BT.2020 non-constant
Mastering display color primaries : R: x=0.680000 y=0.320000, G: x=0.265000 y=0.690000, B: x=0.150000 y=0.060000, White point: x=0.312700 y=0.329000
Mastering display luminance : min: 0.0000 cd/m2, max: 1000.0000 cd/m2
Audio #1
ID : 2
Format : DTS
Format/Info : Digital Theater Systems
Mode : 16
Format settings, Endianness : Big
Codec ID : A_DTS
Duration : 2 h 33 min
Bit rate mode : Constant
Bit rate : 768 kb/s
Channel(s) : 6 channels
Channel positions : Front: L C R, Side: L R, LFE
Sampling rate : 48.0 kHz
Frame rate : 93.750 FPS (512 SPF)
Bit depth : 24 bits
Compression mode : Lossy
Delay relative to video : -9 ms
Stream size : 843 MiB (2%)
Title : [MVO] DTS 5.1 @ 768 kbps (EUR aka Gemini aka Superbit)
Language : Russian
Default : No
Forced : No
Audio #2
ID : 3
Format : DTS
Format/Info : Digital Theater Systems
Format profile : MA / Core
Mode : 16
Format settings, Endianness : Big
Codec ID : A_DTS
Duration : 2 h 33 min
Bit rate mode : Variable / Constant
Bit rate : 4 197 kb/s / 1 509 kb/s
Channel(s) : 6 channels
Channel positions : Front: L C R, Side: L R, LFE
Sampling rate : 48.0 kHz
Frame rate : 93.750 FPS (512 SPF)
Bit depth : 24 bits
Compression mode : Lossless / Lossy
Delay relative to video : -9 ms
Stream size : 4.50 GiB (9%)
Title : [MVO] DTS MA 5.1 @ 4197 kbps (Karusel aka Kinomania)
Language : Russian
Default : No
Forced : No
Audio #3
ID : 4
Format : AC-3
Format/Info : Audio Coding 3
Format settings, Endianness : Big
Codec ID : A_AC3
Duration : 2 h 33 min
Bit rate mode : Constant
Bit rate : 448 kb/s
Channel(s) : 6 channels
Channel positions : Front: L C R, Side: L R, LFE
Sampling rate : 48.0 kHz
Frame rate : 31.250 FPS (1536 SPF)
Bit depth : 16 bits
Compression mode : Lossy
Delay relative to video : -9 ms
Stream size : 492 MiB (1%)
Title : [MVO] DD 5.1 @ 448 kbps (NTV + Karusel)
Language : Russian
Service kind : Complete Main
Default : No
Forced : No
Audio #4
ID : 5
Format : AC-3
Format/Info : Audio Coding 3
Mode : Dolby Digital
Format settings, Endianness : Big
Codec ID : A_AC3
Duration : 2 h 33 min
Bit rate mode : Constant
Bit rate : 192 kb/s
Channel(s) : 2 channels
Channel positions : Front: L R
Sampling rate : 48.0 kHz
Frame rate : 31.250 FPS (1536 SPF)
Bit depth : 16 bits
Compression mode : Lossy
Delay relative to video : -9 ms
Stream size : 211 MiB (0%)
Title : [MVO] DD 2.0 @ 192 kbps (Premier-Video + Karusel)
Language : Russian
Service kind : Complete Main
Default : No
Forced : No
Audio #5
ID : 6
Format : AC-3
Format/Info : Audio Coding 3
Mode : Dolby Digital
Format settings, Endianness : Big
Codec ID : A_AC3
Duration : 2 h 33 min
Bit rate mode : Constant
Bit rate : 192 kb/s
Channel(s) : 2 channels
Channel positions : Front: L R
Sampling rate : 48.0 kHz
Frame rate : 31.250 FPS (1536 SPF)
Bit depth : 16 bits
Compression mode : Lossy
Delay relative to video : -9 ms
Stream size : 211 MiB (0%)
Title : [MVO] DD 2.0 @ 192 kbps (Pervij kanal + Karusel)
Language : Russian
Service kind : Complete Main
Default : No
Forced : No
Audio #6
ID : 7
Format : AC-3
Format/Info : Audio Coding 3
Format settings, Endianness : Big
Codec ID : A_AC3
Duration : 2 h 33 min
Bit rate mode : Constant
Bit rate : 448 kb/s
Channel(s) : 6 channels
Channel positions : Front: L C R, Side: L R, LFE
Sampling rate : 48.0 kHz
Frame rate : 31.250 FPS (1536 SPF)
Bit depth : 16 bits
Compression mode : Lossy
Delay relative to video : -9 ms
Stream size : 492 MiB (1%)
Title : [VO] DD 5.1 @ 448 kbps (A.Gavrilov + J.Zhyvov)
Language : Russian
Service kind : Complete Main
Default : No
Forced : No
Audio #7
ID : 8
Format : AC-3
Format/Info : Audio Coding 3
Format settings, Endianness : Big
Codec ID : A_AC3
Duration : 2 h 33 min
Bit rate mode : Constant
Bit rate : 448 kb/s
Channel(s) : 6 channels
Channel positions : Front: L C R, Side: L R, LFE
Sampling rate : 48.0 kHz
Frame rate : 31.250 FPS (1536 SPF)
Bit depth : 16 bits
Compression mode : Lossy
Delay relative to video : -9 ms
Stream size : 492 MiB (1%)
Title : [VO] DD 5.1 @ 448 kbps (J.Zhyvov)
Language : Russian
Service kind : Complete Main
Default : No
Forced : No
Audio #8
ID : 9
Format : DTS
Format/Info : Digital Theater Systems
Format profile : MA / Core
Mode : 16
Format settings, Endianness : Big
Codec ID : A_DTS
Duration : 2 h 33 min
Bit rate mode : Variable / Constant
Bit rate : 6 139 kb/s / 1 509 kb/s
Channel(s) : 8 channels / 6 channels
Channel positions : Front: L C R, Side: L R, Back: L R, LFE / Front: L C R, Side: L R, LFE
Sampling rate : 48.0 kHz
Frame rate : 93.750 FPS (512 SPF)
Bit depth : 24 bits
Compression mode : Lossless / Lossy
Delay relative to video : -9 ms
Stream size : 6.59 GiB (13%)
Title : [ORIGINAL] DTS:X 7.1 @ 6139 kbps
Language : English
Default : No
Forced : No
Text #1
ID : 10
Format : PGS
Codec ID : S_HDMV/PGS
Codec ID/Info : Picture based subtitle format used on BDs/HD-DVDs
Duration : 2 h 23 min
Bit rate : 58.0 kb/s
Count of elements : 3496
Stream size : 59.6 MiB (0%)
Title : Full-length
Language : Russian
Default : No
Forced : No
Text #2
ID : 11
Format : PGS
Codec ID : S_HDMV/PGS
Codec ID/Info : Picture based subtitle format used on BDs/HD-DVDs
Duration : 2 h 23 min
Bit rate : 35.2 kb/s
Count of elements : 3573
Stream size : 36.1 MiB (0%)
Title : SDH
Language : English
Default : No
Forced : No
Menu
00:00:00.000 : en:Opening Titles/July 2
00:02:43.872 : en:Contact
00:05:01.467 : en:At the White House
00:07:32.577 : en:Approaching Earth
00:08:02.315 : en:Chess Game
00:09:21.602 : en:Compact Cable Chaos
00:10:29.879 : en:Imperial Valley, California
00:12:06.600 : en:Deployment/Def Con 3
00:14:08.514 : en:A Technical Kiss
00:14:56.729 : en:Visual Range
00:18:56.969 : en:The Code for Panic
00:25:33.114 : en:Wake Up Call
00:27:23.725 : en:Countdown to Extinction
00:30:10.808 : en:Duty Calls
00:32:18.102 : en:Get Out of Town
00:34:12.633 : en:Trailer Camp Confrontation
00:36:39.405 : en:Fighter Pilots Report
00:38:17.378 : en:Strip Club
00:40:05.110 : en:Nice Driving
00:41:02.167 : en:Look Up the Number
00:41:33.449 : en:Attempts to Communicate
00:44:15.611 : en:The White House Legacy
00:44:37.925 : en:The Clock Is Ticking
00:46:02.801 : en:Communication Breakdown
00:48:48.008 : en:Panic or Party
00:50:42.038 : en:Time's Up
00:54:22.717 : en:July 3
00:57:22.480 : en:Battle Plans
00:58:05.148 : en:First Attack
01:03:10.995 : en:Two on Two
01:04:30.157 : en:Canyon Chase
01:06:00.748 : en:Welcome to Earth
01:06:52.967 : en:Desert Rv Caravan
01:08:20.012 : en:The Truth Is Out There
01:11:22.027 : en:Urban Survivors
01:12:50.324 : en:Do You Know the Way to Area 51?
01:14:38.140 : en:Area 51
01:18:29.537 : en:The Freak Show
01:21:19.207 : en:Inside the Alien Attacker
01:23:04.729 : en:Arriving with the Alien
01:25:59.779 : en:In the Ruins of El Toro
01:27:49.680 : en:Alien Surgery
01:35:25.260 : en:Nuclear Attack
01:38:52.217 : en:Rescue at El Toro
01:39:55.572 : en:The First Lady's Death
01:42:51.790 : en:July 4
01:49:33.233 : en:Worldwide Plans
01:53:25.339 : en:A Wedding
01:55:01.060 : en:Independence Day
01:59:38.754 : en:Using the Alien Attacker
02:04:03.394 : en:Into the Mother Ship
02:07:41.403 : en:Engage the Enemy
02:10:50.675 : en:Adversity Makes Strange Bedfellows
02:11:52.612 : en:Time for a Hero
02:17:21.316 : en:Execute 'Jolly Roger'
02:21:17.343 : en:Victory
02:24:48.679 : en:Credits
Скриншоты:
[Профиль] [ЛС]
Кто просматривает тему:

Показать сообщения:    

Текущее время: Сегодня 19:05

Часовой пояс: GMT



Вы не можете начинать темы
Вы не можете отвечать на сообщения
Вы не можете редактировать свои сообщения
Вы не можете удалять свои сообщения
Вы не можете голосовать в опросах
Вы не можете прикреплять файлы к сообщениям
Вы не можете скачивать файлы