День независимости: Возрождение / Independence Day: Resurgence (2016) BDRip 720p от ExKinoRay | Лицензия

 
Автор Сообщение

Russian Mafia ®

Пол:

Стаж: 1 год 8 месяцев

Сообщений: 4246



Награды: 10 (Подробнее)

Top Releaser 2 (Количество: 1) Mega Seeder 5 (Количество: 1) За внесенный вклад в развитие сайта (Количество: 1)
Торрент-статистика

Создавать темы 07-Окт-2016 09:24

[Цитировать]

Информация о фильме
Название: День независимости: Возрождение
Оригинальное название: Independence Day: Resurgence
Год выхода: 2016
Жанр: Фантастика, боевик, приключения
Режиссер: Роланд Эммерих
В ролях: Лиам Хемсворт, Джефф Голдблюм, Джесси Ашер, Билл Пуллман, Майка Монро, Села Уорд, Уильям Фихтнер, Джадд Хёрш, Брент Спайнер, Патрик Ст. Эсприт, Вивика А. Фокс, Анджела Бейби
О фильме:
Два десятилетия прошло с момента нашествия инопланетян на Землю. Благодаря технологиям пришельцев человечество в своем развитии шагнуло далеко вперед. Но никакое совершенное оружие не способно остановить второе вторжение беспощадных монстров из космоса. Судьба цивилизации в руках горстки отважных героев – смогут ли они спасти нашу планету от истребления?

Страна: США
Студия: 20th Century Fox Film Corporation
Продолжительность: 01:59:44
Перевод: Дублированный | Лицензия
Файл
Кодек: MPEG-4
Качество: BDRip 720p
Видео: 1280x534, 6554 Кbit/s, 23.976 fps
Звук:
Аудио #01: 48 kHz, AC3, 5.1, 448 Kbps | Дублированный | Лицензия |
Аудио #02: 48 kHz, DTS, 5.1, 1510 kbps | Оригинал |
Субтитры: Русские (full, forced), английские

MI

General
Unique ID : 177203707306190918284419969792456856570 (0x8550314F43EA6DED8492753EAA7913FA)
Complete name : H:VideoIndependence.Day.Resurgence.2016.BDRip.720p.mkv
Format : Matroska
Format version : Version 4 / Version 2
File size : 7.12 GiB
Duration : 1 h 59 min
Overall bit rate : 8 514 kb/s
Encoded date : UTC 2016-10-07 07:45:50
Writing application : mkvmerge v8.3.0 ('Over the Horizon') 64bit
Writing library : libebml v1.3.1 + libmatroska v1.4.2
Cover : Yes
Attachments : cover.jpg
Video
ID : 1
Format : AVC
Format/Info : Advanced Video Codec
Format profile : High@L4.1
Format settings, CABAC : Yes
Format settings, ReFrames : 12 frames
Codec ID : V_MPEG4/ISO/AVC
Duration : 1 h 59 min
Bit rate : 6 554 kb/s
Width : 1 280 pixels
Height : 534 pixels
Display aspect ratio : 2.40:1
Frame rate mode : Constant
Frame rate : 23.976 (24000/1001) FPS
Color space : YUV
Chroma subsampling : 4:2:0
Bit depth : 8 bits
Scan type : Progressive
Bits/(Pixel*Frame) : 0.400
Stream size : 5.48 GiB (77%)
Writing library : x264 core 148 r2721kMod 72d53ab
Encoding settings : cabac=1 / ref=12 / deblock=1:-3:-3 / analyse=0x3:0x133 / me=umh / subme=10 / psy=1 / fade_compensate=0.00 / psy_rd=1.00:0.00 / mixed_ref=1 / me_range=24 / chroma_me=1 / trellis=2 / 8x8dct=1 / cqm=0 / deadzone=21,11 / fast_pskip=0 / chroma_qp_offset=-2 / threads=56 / lookahead_threads=4 / sliced_threads=0 / nr=0 / decimate=0 / interlaced=0 / bluray_compat=0 / constrained_intra=0 / fgo=0 / bframes=9 / b_pyramid=2 / b_adapt=2 / b_bias=0 / direct=3 / weightb=1 / open_gop=0 / weightp=2 / keyint=250 / keyint_min=23 / scenecut=40 / intra_refresh=0 / rc_lookahead=60 / rc=crf / mbtree=0 / crf=16.5000 / qcomp=0.64 / qpmin=0 / qpmax=69 / qpstep=4 / vbv_maxrate=62500 / vbv_bufsize=78125 / crf_max=0.0 / nal_hrd=none / filler=0 / ip_ratio=1.30 / pb_ratio=1.20 / aq=3:0.72
Language : English
Default : Yes
Forced : No
Color range : Limited
Matrix coefficients : BT.709
Audio #1
ID : 2
Format : AC-3
Format/Info : Audio Coding 3
Mode extension : CM (complete main)
Format settings, Endianness : Big
Codec ID : A_AC3
Duration : 1 h 59 min
Bit rate mode : Constant
Bit rate : 448 kb/s
Channel(s) : 6 channels
Channel positions : Front: L C R, Side: L R, LFE
Sampling rate : 48.0 kHz
Frame rate : 31.250 FPS (1536 spf)
Compression mode : Lossy
Stream size : 384 MiB (5%)
Language : Russian
Default : Yes
Forced : No
Audio #2
ID : 3
Format : DTS
Format/Info : Digital Theater Systems
Format profile : ES Matrix / Core
Mode : 16
Format settings, Endianness : Big
Codec ID : A_DTS
Duration : 1 h 59 min
Bit rate mode : Constant
Bit rate : 1 509 kb/s
Channel(s) : 7 channels / 6 channels
Channel positions : Front: L C R, Side: L R, Back: C, LFE / Front: L C R, Side: L R, LFE
Sampling rate : 48.0 kHz
Frame rate : 93.750 FPS (512 spf)
Bit depth : 24 bits
Compression mode : Lossy
Stream size : 1.26 GiB (18%)
Language : English
Default : No
Forced : No
Text #1
ID : 4
Format : UTF-8
Codec ID : S_TEXT/UTF8
Codec ID/Info : UTF-8 Plain Text
Duration : 1 h 57 min
Bit rate : 1 b/s
Count of elements : 15
Stream size : 1.02 KiB (0%)
Title : forced
Language : Russian
Default : Yes
Forced : Yes
Text #2
ID : 5
Format : UTF-8
Codec ID : S_TEXT/UTF8
Codec ID/Info : UTF-8 Plain Text
Duration : 1 h 58 min
Bit rate : 96 b/s
Count of elements : 1736
Stream size : 84.4 KiB (0%)
Title : Full
Language : Russian
Default : No
Forced : No
Text #3
ID : 6
Format : UTF-8
Codec ID : S_TEXT/UTF8
Codec ID/Info : UTF-8 Plain Text
Duration : 7 s 758 ms
Bit rate : 110 b/s
Count of elements : 3
Stream size : 107 Bytes (0%)
Title : English-Forced
Language : English
Default : No
Forced : No
Text #4
ID : 7
Format : UTF-8
Codec ID : S_TEXT/UTF8
Codec ID/Info : UTF-8 Plain Text
Duration : 1 h 49 min
Bit rate : 80 b/s
Count of elements : 1711
Stream size : 64.4 KiB (0%)
Title : Full
Language : English
Default : No
Forced : No
Text #5
ID : 8
Format : UTF-8
Codec ID : S_TEXT/UTF8
Codec ID/Info : UTF-8 Plain Text
Duration : 1 h 49 min
Bit rate : 74 b/s
Count of elements : 2158
Stream size : 59.7 KiB (0%)
Title : SDH
Language : English
Default : No
Forced : No
Menu
00:00:00.000 : en:00:00:00.000
00:05:37.337 : en:00:05:37.337
00:09:15.472 : en:00:09:15.472
00:14:06.721 : en:00:14:06.721
00:19:40.471 : en:00:19:40.471
00:22:59.003 : en:00:22:59.003
00:27:10.254 : en:00:27:10.254
00:31:37.646 : en:00:31:37.646
00:39:11.975 : en:00:39:11.975
00:43:41.118 : en:00:43:41.118
00:47:46.614 : en:00:47:46.614
00:52:32.191 : en:00:52:32.191
00:59:10.255 : en:00:59:10.255
01:02:00.133 : en:01:02:00.133
01:07:12.070 : en:01:07:12.070
01:09:54.816 : en:01:09:54.816
01:13:11.721 : en:01:13:11.721
01:18:27.453 : en:01:18:27.453
01:22:45.502 : en:01:22:45.502
01:27:51.808 : en:01:27:51.808
01:32:36.718 : en:01:32:36.718
01:39:38.139 : en:01:39:38.139
01:47:20.142 : en:01:47:20.142
01:50:36.713 : en:01:50:36.713

Релиз от: Автор релиза:
[Профиль] [ЛС]
Кто просматривает тему:

Показать сообщения:    

Текущее время: Сегодня 20:09

Часовой пояс: GMT



Вы не можете начинать темы
Вы не можете отвечать на сообщения
Вы не можете редактировать свои сообщения
Вы не можете удалять свои сообщения
Вы не можете голосовать в опросах
Вы не можете прикреплять файлы к сообщениям
Вы не можете скачивать файлы