День медведя (Оксана Холодова) [2014, мультфильм, WEBRip-AVC]

 
Автор Сообщение

TorrentFilm ®

Пол:

Стаж: 2 года

Сообщений: 7741



Награды: Нет

Торрент-статистика

Создавать темы 16-Апр-2015 00:02

[Цитировать]

День медведя
Страна: Россия
Жанр: мультфильм
Продолжительность: 00:12:59
Год выпуска: 2014
Режиссёр: Оксана Холодова
Описание: По мотивам сказки Яльмара Бергмана "До чего же люди трусливы".
Девочка Лиза отправляется погулять в лес. Ей не хотелось бы встретить страшного медведя, про которого рассказывала мама. Но Лиза не знает, как медведь выглядит...
Доп. информация: Приз за лучший фильм для детей - Фестиваль анимационного кино в Суздале (2014)
Приз "За воплощение бесстрашия в женском персонаже" - Фестиваль анимации "Золотая Рыбка" (2014)
Качество: WEBRip-AVC
Формат: MP4
Видео: 1557 kbps, 1280х720 (16:9), 29.970 fps, AVC (High@L3.1)
Аудио: 192 kbps, 44.1 kHz, 2 channels, AAC (LC)
Субтитры: отсутствуют

Подробные технические данные

General
Complete name : День медведя (2014).mp4
Format : MPEG-4
Format profile : Base Media / Version 2
Codec ID : mp42
File size : 163 MiB
Duration : 12mn 59s
Overall bit rate mode : Variable
Overall bit rate : 1 751 Kbps
Encoded date : UTC 2014-12-16 18:15:22
Tagged date : UTC 2014-12-16 18:15:22
gsst : 0
gstd : 779865
gssd : BADC29286HH1425714758463724
gshh : r6---sn-n8v7znel.googlevideo.com
Video
ID : 1
Format : AVC
Format/Info : Advanced Video Codec
Format profile : High@L3.1
Format settings, CABAC : Yes
Format settings, ReFrames : 1 frame
Format settings, GOP : M=1, N=60
Codec ID : avc1
Codec ID/Info : Advanced Video Coding
Duration : 12mn 59s
Bit rate : 1 557 Kbps
Maximum bit rate : 4 105 Kbps
Width : 1 280 pixels
Height : 720 pixels
Display aspect ratio : 16:9
Frame rate mode : Constant
Frame rate : 29.970 fps
Color space : YUV
Chroma subsampling : 4:2:0
Bit depth : 8 bits
Scan type : Progressive
Bits/(Pixel*Frame) : 0.056
Stream size : 145 MiB (89%)
Tagged date : UTC 2014-12-16 18:15:27
Audio
ID : 2
Format : AAC
Format/Info : Advanced Audio Codec
Format profile : LC
Codec ID : 40
Duration : 12mn 59s
Bit rate mode : Variable
Bit rate : 192 Kbps
Maximum bit rate : 202 Kbps
Channel(s) : 2 channels
Channel positions : Front: L R
Sampling rate : 44.1 KHz
Compression mode : Lossy
Stream size : 17.8 MiB (11%)
Title : IsoMedia File Produced by Google, 5-11-2011
Encoded date : UTC 2014-12-16 18:15:25
Tagged date : UTC 2014-12-16 18:15:27

Скриншоты

[Профиль] [ЛС]
Кто просматривает тему:

Показать сообщения:    

Текущее время: Сегодня 22:12

Часовой пояс: GMT



Вы не можете начинать темы
Вы не можете отвечать на сообщения
Вы не можете редактировать свои сообщения
Вы не можете удалять свои сообщения
Вы не можете голосовать в опросах
Вы не можете прикреплять файлы к сообщениям
Вы не можете скачивать файлы