День, когда Земля остановилась / The Day the Earth Stood Still (Скотт Дерриксон / Scott Derrickson) [2008, США, фантастика, триллер, драма, HDTVRip] [Open Matte] Dub

 
Автор Сообщение

TorrentFilm ®

Пол:

Стаж: 1 год 11 месяцев

Сообщений: 7741



Награды: Нет

Торрент-статистика

Создавать темы 11-Май-2015 00:03

[Цитировать]

День, когда Земля остановилась / The Day the Earth Stood Still- Страна: США
Жанр: фантастика, триллер, драма
Год выпуска: 2008
Продолжительность: 01:39:30
Перевод: Профессиональный (дублированный)
Cубтитры: нет
Режиссер: Скотт Дерриксон / Scott Derrickson
В ролях: Киану Ривз, Дженнифер Коннелли, Кэти Бейтс, Джейден Смит, Джон Клиз, Джон Хэмм, Кайл Чандлер, Роберт Кнеппер, Джеймс Хонг, Джон Ротман, Сунита Прасад, Juan Riedinger, Сэм Гилрой, Tanya Champoux, Rukiya Bernard, Алисен Даун, Дэвид Льюис, Ллойд Адамс, Муса Крэйиш, Дж.С. МакКензи, Kurt Max Runte
Описание: Об инопланетянине, который прибыл на нашу планету с предупреждением: если не будут прекращены войны и разрушения, Земля будет уничтожена извне, поскольку представляет угрозу для остальной Вселенной!

Автор: BEN-BEN
Релиз:
Качество видео: HDTVRip
Формат видео: AVI
Видео: 704x400 (1.76:1), 25 fps, XviD build 50 ~1968 kbps avg, 0.28 bit/pixel
Аудио: 48 kHz, MPEG Layer 3, 2 ch, ~128.00 kbps avg

MediaInfo

Общее
Полное имя : C:\Documents and Settings\User\Рабочий стол\фильмы\The.Day.the.Earth.Stood.Still.2008.HDTVRip.avi
Формат : AVI
Формат/Информация : Audio Video Interleave
Размер файла : 1,46 Гбайт
Продолжительность : 1 ч. 39 м.
Общий поток : 2106 Кбит/сек
Программа кодирования : VirtualDubMod 1.5.10.3 | www.virtualdub-fr.org || (build 2550/release)
Библиотека кодирования : VirtualDubMod build 2550/release
Видео
Идентификатор : 0
Формат : MPEG-4 Visual
Профиль формата : Advanced Simple@L5
Параметр BVOP формата : 1
Параметр QPel формата : Нет
Параметр GMC формата : Без точки перехода
Параметр матрицы формата : Default (MPEG)
Идентификатор кодека : XVID
Идентификатор кодека/Подсказка : XviD
Продолжительность : 1 ч. 39 м.
Битрейт : 1968 Кбит/сек
Ширина : 704 пикселя
Высота : 400 пикселей
Соотношение сторон : 16:9
Частота кадров : 25,000 кадров/сек
Цветовое пространство : YUV
Субдискретизация насыщенности : 4:2:0
Битовая глубина : 8 бит
Тип развёртки : Прогрессивная
Метод сжатия : С потерями
Бит/(Пиксели*Кадры) : 0.280
Размер потока : 1,37 Гбайт (93%)
Библиотека кодирования : XviD 1.2.1 (UTC 2008-12-04)
Аудио
Идентификатор : 1
Формат : MPEG Audio
Версия формата : Version 1
Профиль формата : Layer 3
Идентификатор кодека : 55
Идентификатор кодека/Подсказка : MP3
Продолжительность : 1 ч. 39 м.
Вид битрейта : Постоянный
Битрейт : 128 Кбит/сек
Каналы : 2 канала
Частота : 48,0 КГц
Метод сжатия : С потерями
Размер потока : 91,1 Мбайт (6%)
Выравнивание : Соединение по промежуткам
Продолжительность промежутка : 40 мс. (1,00 видеокадр)
Время предзагрузки промежутка : 504 мс.
Библиотека кодирования : LAME3.99r
Настройки программы : -m s -V 4 -q 2 -lowpass 17 -b 128

Скриншоты

Сравнениеhttp://torrentfilm.net/forum/viewtopic.php?t=4239012 http://screenshotcomparison.com/comparison/124254
[Профиль] [ЛС]

Создавать темы 06-Авг-2015 22:35 (спустя 2 месяца 26 дней)

Топик был перенесен из форума Фильмы до 2014 года в форум Фильмы до 2012 года
sergej644
 

Создавать темы 12-Июн-2016 08:51 (спустя 1 год 1 месяц)

Топик был перенесен из форума Фильмы 2011 года в форум Фильмы 2006-2008 года
Russian Mafia
 
Показать сообщения:    

Текущее время: Сегодня 09:49

Часовой пояс: GMT



Вы не можете начинать темы
Вы не можете отвечать на сообщения
Вы не можете редактировать свои сообщения
Вы не можете удалять свои сообщения
Вы не можете голосовать в опросах
Вы не можете прикреплять файлы к сообщениям
Вы не можете скачивать файлы