День выборов 2 (Александр Баршак) [2016, Россия, комедия, WEB-DL 1080p]

 
Автор Сообщение

TorrentFilm ®

Пол:

Стаж: 2 года

Сообщений: 7741



Награды: Нет

Торрент-статистика

Создавать темы 28-Мар-2016 00:08

[Цитировать]

-День выборов 2- Страна: Россия
Жанр: Комедия
Год выпуска: 2016
Продолжительность: 01:44:06-Перевод: Не требуется
Cубтитры: нет
Оригинальная аудиодорожка: русский-Режиссёр: Александр Баршак-В ролях: Леонид Барац, Ростислав Хаит, Александр Демидов, Камиль Ларин, Василий Уткин, Нонна Гришаева, Максим Виторган, Михаил Ефремов, Алексей Макаров, Алексей Кортнев-Описание: Игорь Цаплин будет избираться на третий срок, а поможет ему в этом уже знакомая зрителю команда пиарщиков.- -
Качество видео
: WEB-DL 1080p
Формат видео: MKV
Видео:1920x806 (2.40:1), 25.000 fps, AVC MPEG-4 (H264), 4 623 Кbps avg, 0.119 bit/pixell
Аудио:48 kHz, AC3 Dolby Digital, 3/2 (L,C,R,l,r) + LFE ch, ~384.00 kbps avg-

MediaInfo

General
Unique ID : 188038256592063979001165045921683293280 (0x8D76D9D4FB7AE056B9A5D79951D34460)
Complete name : D:\Фильмы\Den.viborov.2 WEBDLRip 1080p.mkv
Format : Matroska
Format version : Version 2
File size : 3.64 GiB
Duration : 1h 44mn
Overall bit rate : 5 008 Kbps
Encoded date : UTC 2016-03-24 18:55:03
Writing application : mkvmerge v8.3.0 ('Over the Horizon') 64bit
Writing library : libebml v1.3.1 + libmatroska v1.4.2
Video
ID : 1
Format : AVC
Format/Info : Advanced Video Codec
Format profile : High@L4
Format settings, CABAC : Yes
Format settings, ReFrames : 5 frames
Codec ID : V_MPEG4/ISO/AVC
Duration : 1h 44mn
Bit rate : 4 623 Kbps
Width : 1 920 pixels
Height : 806 pixels
Display aspect ratio : 2.40:1
Frame rate mode : Constant
Frame rate : 25.000 fps
Color space : YUV
Chroma subsampling : 4:2:0
Bit depth : 8 bits
Scan type : Progressive
Bits/(Pixel*Frame) : 0.119
Stream size : 3.36 GiB (92%)
Language : English
Default : Yes
Forced : No
Color range : Limited
Color primaries : BT.709
Transfer characteristics : BT.709
Matrix coefficients : BT.709
Audio
ID : 2
Format : AC-3
Format/Info : Audio Coding 3
Mode extension : CM (complete main)
Format settings, Endianness : Big
Codec ID : A_AC3
Duration : 1h 44mn
Bit rate mode : Constant
Bit rate : 384 Kbps
Channel(s) : 6 channels
Channel positions : Front: L C R, Side: L R, LFE
Sampling rate : 48.0 KHz
Frame rate : 31.250 fps (1536 spf)
Compression mode : Lossy
Stream size : 286 MiB (8%)
Language : Russian
Default : Yes
Forced : No
Menu
00:00:00.000 : en:Глава 1
00:05:12.680 : en:Глава 2
00:10:56.200 : en:Глава 3
00:16:56.600 : en:Глава 4
00:22:04.160 : en:Глава 5
00:27:38.400 : en:Глава 6
00:33:47.280 : en:Глава 7
00:39:29.440 : en:Глава 8
00:44:56.680 : en:Глава 9
00:50:17.760 : en:Глава 10
00:56:33.760 : en:Глава 11
01:01:49.280 : en:Глава 12
01:07:03.800 : en:Глава 13
01:13:17.680 : en:Глава 14
01:18:54.640 : en:Глава 15
01:25:07.960 : en:Глава 16
01:31:30.600 : en:Глава 17
01:38:11.640 : en:Глава 18

-

Скриншот c названием фильма

Скриншоты

-
[Профиль] [ЛС]
Кто просматривает тему:

Показать сообщения:    

Текущее время: Сегодня 22:30

Часовой пояс: GMT



Вы не можете начинать темы
Вы не можете отвечать на сообщения
Вы не можете редактировать свои сообщения
Вы не можете удалять свои сообщения
Вы не можете голосовать в опросах
Вы не можете прикреплять файлы к сообщениям
Вы не можете скачивать файлы