День выборов 2 (2016) WEB-DLRip-AVC | iTunes Russia

 
Автор Сообщение

достали все ®

Пол:

Стаж: 1 год 8 месяцев

Сообщений: 6570



Награды: 12 (Подробнее)

Top Releaser 4 (Количество: 1) Top Releaser 3 (Количество: 1) Top Releaser 2 (Количество: 1)
Торрент-статистика

Создавать темы 25-Мар-2016 15:44

[Цитировать]

Информация о фильме
Название: День выборов 2
Год выпуска: 2016
Жанр: Комедия
Режиссер: Александр Баршак
В ролях: Леонид Барац, Ростислав Хаит, Александр Демидов, Камиль Ларин, Василий Уткин, Нонна Гришаева, Максим Виторган, Михаил Ефремов, Алексей Макаров, Алексей Кортнев, Михаил Козырев, Ян Цапник, Александр Самойленко, Андрей Смоляков, Агриппина Стеклова, Сергей Бурунов, Артём Осипов, Сергей Стёпин, Тимофей Трибунцев, Константин Чепурин
О фильме: Игорь Цаплин будет избираться на третий срок, а поможет ему в этом уже знакомая зрителю команда пиарщиков.

Выпущено: Россия, «Кедр ПРО», «Стрела»
Продолжительность: 01:44:06
Перевод: Не требуется [iTunes]
Файл
Кодек: х264
Качество: WEB-DLRip-AVC
Видео: MPEG-4 AVC, 1628 Кбит/с, 720x302
Аудио: AC3, 6 ch, 384 Кбит/с

Инфо

Общее
Уникальный идентификатор : 208583263263223591474050810229314148141 (0x9CEBACDDF2CEB97E979F36129EC1D72D)
Полное имя : D:ВидеоДень выборов 2. 2016.WEB-DLRip-AVC by Vovan366(ExKinoRay).mkv
Формат : Matroska
Версия формата : Version 4 / Version 2
Размер файла : 1,46 Гбайт
Продолжительность : 1 ч. 44 м.
Общий поток : 2005 Кбит/сек
Название фильма : День выборов 2. 2016.WEB-DLRip-AVC by Vovan366(ExKinoRay)
Дата кодирования : UTC 2016-03-25 11:33:34
Программа кодирования : mkvmerge v8.9.0 ('Father Daughter') 64bit
Библиотека кодирования : libebml v1.3.3 + libmatroska v1.4.4
DURATION : 01:44:06.912000000
NUMBER_OF_FRAMES : 195216
NUMBER_OF_BYTES : 299851776
_STATISTICS_WRITING_APP : mkvmerge v8.9.0 ('Father Daughter') 64bit
_STATISTICS_WRITING_DATE_UTC : 2016-03-25 11:33:34
_STATISTICS_TAGS : BPS DURATION NUMBER_OF_FRAMES NUMBER_OF_BYTES
Видео
Идентификатор : 1
Формат : AVC
Формат/Информация : Advanced Video Codec
Профиль формата : High@L4.1
Параметр CABAC формата : Да
Параметр ReFrames формата : 8 кадров
Идентификатор кодека : V_MPEG4/ISO/AVC
Продолжительность : 1 ч. 44 м.
Битрейт : 1621 Кбит/сек
Ширина : 720 пикселей
Высота : 302 пикселя
Соотношение сторон : 2,40:1
Режим частоты кадров : Постоянный
Частота кадров : 25,000 кадров/сек
Цветовое пространство : YUV
Субдискретизация насыщенности : 4:2:0
Битовая глубина : 8 бит
Тип развёртки : Прогрессивная
Бит/(Пиксели*Кадры) : 0.298
Размер потока : 1,15 Гбайт (79%)
Заголовок : by Vovan366(ExKinoRay)
Библиотека кодирования : x264 core 146 r2538 121396c
Настройки программы : cabac=1 / ref=8 / deblock=1:-3:-3 / analyse=0x3:0x113 / me=umh / subme=10 / psy=1 / psy_rd=1.01:0.10 / mixed_ref=1 / me_range=32 / chroma_me=1 / trellis=2 / 8x8dct=1 / cqm=0 / deadzone=21,11 / fast_pskip=0 / chroma_qp_offset=-3 / threads=6 / lookahead_threads=1 / sliced_threads=0 / nr=0 / decimate=0 / interlaced=0 / bluray_compat=0 / constrained_intra=0 / bframes=8 / b_pyramid=2 / b_adapt=2 / b_bias=0 / direct=3 / weightb=1 / open_gop=0 / weightp=2 / keyint=250 / keyint_min=24 / scenecut=40 / intra_refresh=0 / rc=2pass / mbtree=0 / bitrate=1621 / ratetol=1.0 / qcomp=0.60 / qpmin=0 / qpmax=69 / qpstep=4 / cplxblur=20.0 / qblur=0.5 / ip_ratio=1.40 / pb_ratio=1.30 / aq=1:1.00
Default : Да
Forced : Нет
Основные цвета : BT.709
Характеристики трансфера : BT.709
Коэффициенты матрицы : BT.709
Аудио
Идентификатор : 2
Формат : AC-3
Формат/Информация : Audio Coding 3
Расширение режима : CM (complete main)
Параметр Endianness формата : Big
Идентификатор кодека : A_AC3
Продолжительность : 1 ч. 44 м.
Вид битрейта : Постоянный
Битрейт : 384 Кбит/сек
Каналы : 6 каналов
Расположение каналов : Front: L C R, Side: L R, LFE
Частота : 48,0 КГц
Битовая глубина : 16 бит
Метод сжатия : С потерями
Размер потока : 286 Мбайт (19%)
Язык : Russian
Default : Да
Forced : Да
Меню
00:00:00.000 : en:Глава 1
00:05:12.680 : en:Глава 2
00:10:56.200 : en:Глава 3
00:16:56.600 : en:Глава 4
00:22:04.160 : en:Глава 5
00:27:38.400 : en:Глава 6
00:33:47.280 : en:Глава 7
00:39:29.440 : en:Глава 8
00:44:56.680 : en:Глава 9
00:50:17.760 : en:Глава 10
00:56:33.760 : en:Глава 11
01:01:49.280 : en:Глава 12
01:07:03.800 : en:Глава 13
01:13:17.680 : en:Глава 14
01:18:54.640 : en:Глава 15
01:25:07.960 : en:Глава 16
01:31:30.600 : en:Глава 17
01:38:11.640 : en:Глава 18

Скриншоты



[Профиль] [ЛС]
Кто просматривает тему:

Показать сообщения:    

Текущее время: Сегодня 10:52

Часовой пояс: GMT



Вы не можете начинать темы
Вы не можете отвечать на сообщения
Вы не можете редактировать свои сообщения
Вы не можете удалять свои сообщения
Вы не можете голосовать в опросах
Вы не можете прикреплять файлы к сообщениям
Вы не можете скачивать файлы