День выборов (Олег Фомин) [2007, Россия, комедия, WEB-DL 1080p]

 
Автор Сообщение

TorrentFilm ®

Пол:

Стаж: 2 года

Сообщений: 7741



Награды: Нет

Торрент-статистика

Создавать темы 29-Мар-2016 00:08

[Цитировать]

День выборов- -Страна: Россия
Жанр: комедия
Год выпуска: 2007
Производство: «СТАР-Т»
Продолжительность: 02:02:55
Оригинальная аудиодорожка: русский
Cубтитры: нет-Режиссер: Олег Фомин-В ролях:
Александр Демидов, Леонид Барац, Ростислав Хаит, Камиль Ларин, Максим Виторган, Нонна Гришаева, Василий Уткин, Михаил Ефремов, Евгений Стеблов, Дмитрий Певцов, Марат Башаров, Евгений Стычкин, Олег Фомин, Валерий Баринов, Анна Азарова, Елена Шевченко, Елена Князева, Михаил Козырев, Денис Константинов, Алексей Кортнев, Александр Семчев, Павел Абдалов, Михаил Евланов, Юрий Круценко, Александр Голубев, Сергей Шнуров, Владимир Бегунов, Владимир Шахрин, Андрей Григорьев-Апполонов, Кирилл Андреев, Олег Яковлев, Владимир Кристовский, Сергей Кристовский, Валерий Сюткин, Андрей Макаревич, Георгий Мартиросян-Описание:
Руководитель одной из самых рейтинговых радиостанций страны получает заказ от загадочного клиента.
Необходимо «раскрутить» на региональных выборах своего кандидата, отобрать голоса у конкурентов и тем самым повлиять на избрание нового губернатора.
За выполнение задачи государственной важности берутся лучшие умы радиостанции.-Возраст: 16+-Качество: WEB-DL 1080p
Формат: MKV
Видео кодек: AVC
Аудио кодек: AC3

Видео: AVC, 1920 х 1080 (16:9), 25,000 кадр/сек, 5 095 Кбит/сек, 0.106 bit/pixel
Аудио: AC3, 48000 Hz, 448 Kbps, 6 каналов
-

MediaInfo

General
Unique ID : 213918519163833885664208382499680798305 (0xA0EF354ABCE8B3FCBBF48DE0AA61C661)
Complete name : D:\День выборов WEB-DL (1080p)\День выборов WEB-DL (1080p).mkv
Format : Matroska
Format version : Version 4 / Version 2
File size : 4.76 GiB
Duration : 2h 2mn
Overall bit rate : 5 543 Kbps
Movie name : DEN_VYBOROV_WEB_DL_1080p-BLUEBIRD
Encoded date : UTC 2016-03-25 11:59:18
Writing application : mkvmerge v7.1.0 ('Good Love') 64bit built on Jul 27 2014 13:06:55
Writing library : libebml v1.3.0 + libmatroska v1.4.1
Video
ID : 1
Format : AVC
Format/Info : Advanced Video Codec
Format profile : High@L4
Format settings, CABAC : Yes
Format settings, ReFrames : 4 frames
Codec ID : V_MPEG4/ISO/AVC
Duration : 2h 2mn
Bit rate : 5 095 Kbps
Width : 1 790 pixels
Height : 1 076 pixels
Display aspect ratio : 5:3
Frame rate mode : Constant
Frame rate : 25.000 fps
Color space : YUV
Chroma subsampling : 4:2:0
Bit depth : 8 bits
Scan type : Progressive
Bits/(Pixel*Frame) : 0.106
Stream size : 4.37 GiB (92%)
Title : DEN_VYBOROV_WEB_DL_1080p-BLUEBIRD
Language : Russian
Default : Yes
Forced : No
Color range : Limited
Color primaries : BT.709
Transfer characteristics : BT.709
Matrix coefficients : BT.709
Audio
ID : 2
Format : AC-3
Format/Info : Audio Coding 3
Mode extension : CM (complete main)
Format settings, Endianness : Big
Codec ID : A_AC3
Duration : 2h 2mn
Bit rate mode : Constant
Bit rate : 448 Kbps
Channel(s) : 6 channels
Channel positions : Front: L C R, Side: L R, LFE
Sampling rate : 48.0 KHz
Frame rate : 31.250 fps (1536 spf)
Compression mode : Lossy
Stream size : 392 MiB (8%)
Title : [ORIGINAL] DD 5.1 @ 448 kbps [DVD]
Language : Russian
Default : Yes
Forced : No
Menu
00:00:00.000 : en:Глава 1
00:06:50.800 : en:Глава 2
00:12:02.680 : en:Глава 3
00:17:11.920 : en:Глава 4
00:23:45.320 : en:Глава 5
00:30:48.720 : en:Глава 6
00:38:12.160 : en:Глава 7
00:44:05.080 : en:Глава 8
00:51:18.920 : en:Глава 9
00:56:58.840 : en:Глава 10
01:03:04.960 : en:Глава 11
01:11:10.120 : en:Глава 12
01:17:28.480 : en:Глава 13
01:25:29.240 : en:Глава 14
01:32:21.000 : en:Глава 15
01:40:22.120 : en:Глава 16
01:48:25.040 : en:Глава 17
01:58:14.520 : en:Глава 18

Скриншоты


-Раздаю до первых 5-ти скачавших, на раздачи не возвращаюсь...-
[Профиль] [ЛС]
Кто просматривает тему:

Показать сообщения:    

Текущее время: Сегодня 14:26

Часовой пояс: GMT



Вы не можете начинать темы
Вы не можете отвечать на сообщения
Вы не можете редактировать свои сообщения
Вы не можете удалять свои сообщения
Вы не можете голосовать в опросах
Вы не можете прикреплять файлы к сообщениям
Вы не можете скачивать файлы