День выборов (2007) WEB-DL 1080p

 
Автор Сообщение

достали все ®

Пол:

Стаж: 1 год 8 месяцев

Сообщений: 6600



Награды: 12 (Подробнее)

Mega Seeder 1 (Количество: 1) Mega Seeder 4 (Количество: 1) Top Releaser 4 (Количество: 1)
Торрент-статистика

Создавать темы 26-Мар-2016 04:09

[Цитировать]

Информация о фильме
Название: День выборов
Год выхода: 2007
Жанр: комедия
Режиссер: Олег Фомин
В ролях: Леонид Барац, Ростислав Хаит, Александр Демидов, Камиль Ларин, Василий Уткин, Михаил Козырев, Михаил Ефремов, Нонна Гришаева, Максим Виторган, Александр Семчев
О фильме:
Руководитель одной из самых рейтинговых радиостанций страны получает заказ от загадочного клиента. Необходимо «раскрутить» на региональных выборах своего кандидата, отобрать голоса у конкурентов и тем самым повлиять на избрание нового губернатора. За выполнение задачи государственной важности берутся лучшие умы радиостанции.

Страна: Россия
Студия: STAR-T
Продолжительность: 02:02:55
Перевод: Оригинальный [DVD]
Релиз:
Файл
Формат: Matroska
Видео: 1790x1076 at 25.000 fps, MPEG-4 AVC, ~5000 kbps avg
Аудио: Russian: 48 kHz, AC3, 3/2 (L,C,R,l,r) + LFE ch, ~448.00 kbps avg
Субтитры: None

MI

Общее
Уникальный идентификатор : 213918519163833885664208382499680798305 (0xA0EF354ABCE8B3FCBBF48DE0AA61C661)
Полное имя : DEN_VYBOROV_WEB_DL_1080p-BLUEBIRD.mkv
Формат : Matroska
Версия формата : Version 4 / Version 2
Размер файла : 4,76 Гбайт
Продолжительность : 2 ч. 2 м.
Общий поток : 5543 Кбит/сек
Название фильма : DEN_VYBOROV_WEB_DL_1080p-BLUEBIRD
Дата кодирования : UTC 2016-03-25 11:59:18
Программа кодирования : mkvmerge v7.1.0 ('Good Love') 64bit built on Jul 27 2014 13:06:55
Библиотека кодирования : libebml v1.3.0 + libmatroska v1.4.1
Видео
Идентификатор : 1
Формат : AVC
Формат/Информация : Advanced Video Codec
Профиль формата : High@L4
Параметр CABAC формата : Да
Параметр ReFrames формата : 4 кадра
Идентификатор кодека : V_MPEG4/ISO/AVC
Продолжительность : 2 ч. 2 м.
Битрейт : 4985 Кбит/сек
Ширина : 1790 пикселей
Высота : 1076 пикселей
Соотношение сторон : 5:3
Режим частоты кадров : Постоянный
Частота кадров : 25,000 кадров/сек
Цветовое пространство : YUV
Субдискретизация насыщенности : 4:2:0
Битовая глубина : 8 бит
Тип развёртки : Прогрессивная
Бит/(Пиксели*Кадры) : 0.104
Размер потока : 4,28 Гбайт (90%)
Заголовок : DEN_VYBOROV_WEB_DL_1080p-BLUEBIRD
Язык : Russian
Default : Да
Forced : Нет
Цветовой диапазон : Limited
Основные цвета : BT.709
Характеристики трансфера : BT.709
Коэффициенты матрицы : BT.709
Аудио
Идентификатор : 2
Формат : AC-3
Формат/Информация : Audio Coding 3
Расширение режима : CM (complete main)
Параметр Endianness формата : Big
Идентификатор кодека : A_AC3
Продолжительность : 2 ч. 2 м.
Вид битрейта : Постоянный
Битрейт : 448 Кбит/сек
Каналы : 6 каналов
Расположение каналов : Front: L C R, Side: L R, LFE
Частота : 48,0 КГц
Метод сжатия : С потерями
Размер потока : 394 Мбайт (8%)
Заголовок : [ORIGINAL] DD 5.1 @ 448 kbps [DVD]
Язык : Russian
Default : Да
Forced : Нет
Меню
00:00:00.000 : en:Глава 1
00:06:50.800 : en:Глава 2
00:12:02.680 : en:Глава 3
00:17:11.920 : en:Глава 4
00:23:45.320 : en:Глава 5
00:30:48.720 : en:Глава 6
00:38:12.160 : en:Глава 7
00:44:05.080 : en:Глава 8
00:51:18.920 : en:Глава 9
00:56:58.840 : en:Глава 10
01:03:04.960 : en:Глава 11
01:11:10.120 : en:Глава 12
01:17:28.480 : en:Глава 13
01:25:29.240 : en:Глава 14
01:32:21.000 : en:Глава 15
01:40:22.120 : en:Глава 16
01:48:25.040 : en:Глава 17
01:58:14.520 : en:Глава 18

Скриншоты


[Профиль] [ЛС]
Кто просматривает тему:

Показать сообщения:    

Текущее время: Сегодня 13:48

Часовой пояс: GMT



Вы не можете начинать темы
Вы не можете отвечать на сообщения
Вы не можете редактировать свои сообщения
Вы не можете удалять свои сообщения
Вы не можете голосовать в опросах
Вы не можете прикреплять файлы к сообщениям
Вы не можете скачивать файлы