День восьмой или первый урок мышления (Владимир Дахно) [1971, Рисованный мультфильм, SATRip]

 
Автор Сообщение

TorrentFilm ®

Пол:

Стаж: 2 года

Сообщений: 7741



Награды: Нет

Торрент-статистика

Создавать темы 16-Май-2015 00:04

[Цитировать]

День восьмой или первый урок мышления
Страна: CCCР
Жанр: Рисованный мультфильм
Продолжительность: 00:09:37
Год выпуска: 1971
Русские субтитры: нет
Режиссёр: Владимир Дахно
Описание: А что же было после дня Творения человека? Вы действительно думаете, что после дня законного отдыха Бог стал придерживаться политики невмешательства? Нет, он захотел научить человека важнейшему навыку и оружию — умению размышлять. Что получилось из такой чудесной затеи…
Доп. информация: «Киевнаучфильм»
Раздача группы:
Рип by Itartass
Качество: SATRip
Формат: AVI
Видео: 704x528 (1.33:1), 25 fps, XviD build 64 ~2200 kbps avg, 0.24 bit/pixel
Аудио: 48 kHz, MPEG Layer 3, 2 ch, ~192.00 kbps avg
Субтитры: нет

Подробные технические данные

Format : AVIFormat/Info : Audio Video InterleaveFile size : 165 MiBDuration : 9mn 37sOverall bit rate : 2 402 KbpsWriting application : VirtualDubMod 1.5.10.3 | www.virtualdub-fr.org || (build 2550/release)Writing library : VirtualDubMod build 2550/release
VideoID : 0Format : MPEG-4 VisualFormat profile : Advanced Simple@L5Format settings, BVOP : 2Format settings, QPel : NoFormat settings, GMC : No warppointsFormat settings, Matrix : CustomCodec ID : XVIDCodec ID/Hint : XviDDuration : 9mn 37sBit rate : 2 200 KbpsWidth : 704 pixelsHeight : 528 pixelsDisplay aspect ratio : 4:3Frame rate : 25.000 fpsColor space : YUVChroma subsampling : 4:2:0Bit depth : 8 bitsScan type : ProgressiveCompression mode : LossyBits/(Pixel*Frame) : 0.237Stream size : 151 MiB (92%)Writing library : XviD 64
AudioID : 1Format : MPEG AudioFormat version : Version 1Format profile : Layer 3Codec ID : 55Codec ID/Hint : MP3Duration : 9mn 37sBit rate mode : ConstantBit rate : 192 KbpsChannel(s) : 2 channelsSampling rate : 48.0 KHzCompression mode : LossyStream size : 13.2 MiB (8%)Alignment : Aligned on interleavesInterleave, duration : 40 ms (1.00 video frame)Interleave, preload duration : 504 msWriting library : LAME3.98rEncoding settings : -m s -V 4 -q 0 -lowpass 18.6 -b 192

Скриншоты

[Профиль] [ЛС]
Кто просматривает тему:

Показать сообщения:    

Текущее время: Сегодня 02:17

Часовой пояс: GMT



Вы не можете начинать темы
Вы не можете отвечать на сообщения
Вы не можете редактировать свои сообщения
Вы не можете удалять свои сообщения
Вы не можете голосовать в опросах
Вы не можете прикреплять файлы к сообщениям
Вы не можете скачивать файлы