(Pop)Денис Майданов - Пролетая над нами... (2014) [FLAC|Lossless]

 
Автор Сообщение

sergej644 ®

Пол:

Стаж: 4 года 11 месяцев

Сообщений: 6035

Откуда: Soviet Union



Награды: Нет

Торрент-статистика

Создавать темы 19-Ноя-2014 20:21

[Цитировать]

-Денис Майданов - Пролетая над нами... (2014)- Год: 2014
Жанр: Pop
Лейбл: Первое Музыкальное Издательство
Каталог #: UMGCD14-421
Продолжительность: 01:00:52
Кодек: FLAC
Тип рипа: image + .cue
Битрейт: Lossless
Треклист:
01. Пролетая над нами (4:00)
02. Территория сердца (3:57)
03. Небо пополам (4:33)
04. 36,6 (Radio Edit) (3:39)
05. Солнце там, где ты (4:15)
06. Доброй ночи, малыш (4:44)
07. Оттепель (4:55)
08. График (4:09)
09. Ностальгия (4:41)
10. Моя религия (4:04)
11. Ледяные пули (3:58)
12. 48 часов (Radio Edit) (4:00)
13. Стеклянная любовь (feat. Филипп Киркоров) (4:02)
14. 36,6 (Full Version) (5:55)

Отчёт ЕАС:

Exact Audio Copy V1.0 beta 3 from 29. August 2011
Отчёт EAC об извлечении, выполненном 26. марта 2014, 20:59
Денис Майданов / Пролетая над нами...
Дисковод: ASUS    DRW-1814BLT   Adapter: 1  ID: 1
Режим чтения                 : Достоверность
Использование точного потока : Да
Отключение кэша аудио        : Да
Использование указателей C2  : Нет
Коррекция смещения при чтении                     : 6
Способность читать области Lead-in и Lead-out     : Нет
Заполнение пропущенных сэмплов тишиной            : Да
Удаление блоков с тишиной в начале и конце        : Нет
При вычислениях CRC использовались нулевые сэмплы : Да
Интерфейс                                         : Встроенный Win32-интерфейс для Win NT/2000
Выходной формат : Внутренние WAV-операции
Формат сэмплов  : 44.100 Гц; 16 бит; стерео
TOC извлечённого CD
     Трек |   Старт  | Длительность | Начальный сектор | Конечный сектор
    ---------------------------------------------------------------------
       1  |  0:00.00 |    3:59.67   |           0      |      17991
       2  |  3:59.67 |    3:56.39   |       17992      |      35730
       3  |  7:56.31 |    4:32.69   |       35731      |      56199
       4  | 12:29.25 |    3:39.18   |       56200      |      72642
       5  | 16:08.43 |    4:14.60   |       72643      |      91752
       6  | 20:23.28 |    4:43.52   |       91753      |     113029
       7  | 25:07.05 |    4:55.02   |      113030      |     135156
       8  | 30:02.07 |    4:09.31   |      135157      |     153862
       9  | 34:11.38 |    4:41.34   |      153863      |     174971
      10  | 38:52.72 |    4:03.74   |      174972      |     193270
      11  | 42:56.71 |    3:57.43   |      193271      |     211088
      12  | 46:54.39 |    4:00.14   |      211089      |     229102
      13  | 50:54.53 |    4:02.14   |      229103      |     247266
      14  | 54:56.67 |    5:55.34   |      247267      |     273925
Характеристики диапазона извлечения и сообщения об ошибках
Выбранный диапазон
     Имя файла C:\vlad victorovich\Денис Майданов - Пролетая над нами....wav
     Пиковый уровень 97.7 %
     Скорость извлечения 7.2 X
     Качество диапазона 99.9 %
     CRC теста 7E429310
     CRC копии 7E429310
     Копирование... OK
Ошибок не произошло
AccurateRip: сводка
Трек  1  отсутствует в базе данных
Трек  2  отсутствует в базе данных
Трек  3  отсутствует в базе данных
Трек  4  отсутствует в базе данных
Трек  5  отсутствует в базе данных
Трек  6  отсутствует в базе данных
Трек  7  отсутствует в базе данных
Трек  8  отсутствует в базе данных
Трек  9  отсутствует в базе данных
Трек 10  отсутствует в базе данных
Трек 11  отсутствует в базе данных
Трек 12  отсутствует в базе данных
Трек 13  отсутствует в базе данных
Трек 14  отсутствует в базе данных
Ни одного трека нет в базе AccurateRip
Конец отчёта
==== Контрольная сумма отчёта 3A6440E5119CBEAD84B9764B32AF6D3EA031D20F9EBD684AC254F6893F9B93C4 ====

Отчёт auCDtect Task manager:

-----------------------
DON'T MODIFY THIS FILE
-----------------------
PERFORMER: auCDtect Task Manager, ver. 1.6.0 RC1 build 1.6.0.1
Copyright (c) 2008-2010 y-soft. All rights reserved
http://y-soft.org
ANALYZER: auCDtect: CD records authenticity detector, version 0.8.2
Copyright (c) 2004 Oleg Berngardt. All rights reserved.
Copyright (c) 2004 Alexander Djourik. All rights reserved.
FILE: Денис Майданов - Пролетая над нами....flac
  Size: 486315084 Hash: A54A9C7815B9B4C214ADC41954D9566E Accuracy: -m0
  Conclusion: CDDA 99%
  Signature: A99D949A61A5B82D27BFE151D3CC5D2EB1536512

Содержание индексной карты (.CUE)

REM GENRE Pop
REM DATE 2014
REM DISCID C00E440E
REM COMMENT "ExactAudioCopy v1.0b3"
PERFORMER "Денис Майданов"
TITLE "Пролетая над нами..."
FILE "Денис Майданов - Пролетая над нами....flac" WAVE
  TRACK 01 AUDIO
    TITLE "Пролетая над нами"
    PERFORMER "Денис Майданов"
    INDEX 01 00:00:00
  TRACK 02 AUDIO
    TITLE "Территория сердца"
    PERFORMER "Денис Майданов"
    INDEX 00 03:57:67
    INDEX 01 03:59:67
  TRACK 03 AUDIO
    TITLE "Небо пополам"
    PERFORMER "Денис Майданов"
    INDEX 00 07:54:31
    INDEX 01 07:56:31
  TRACK 04 AUDIO
    TITLE "36,6 (Radio Edit)"
    PERFORMER "Денис Майданов"
    INDEX 00 12:27:25
    INDEX 01 12:29:25
  TRACK 05 AUDIO
    TITLE "Солнце там, где ты"
    PERFORMER "Денис Майданов"
    INDEX 00 16:06:43
    INDEX 01 16:08:43
  TRACK 06 AUDIO
    TITLE "Доброй ночи, малыш"
    PERFORMER "Денис Майданов"
    INDEX 00 20:21:28
    INDEX 01 20:23:28
  TRACK 07 AUDIO
    TITLE Оттепель
    PERFORMER "Денис Майданов"
    INDEX 00 25:05:05
    INDEX 01 25:07:05
  TRACK 08 AUDIO
    TITLE График
    PERFORMER "Денис Майданов"
    INDEX 00 30:00:07
    INDEX 01 30:02:07
  TRACK 09 AUDIO
    TITLE Ностальгия
    PERFORMER "Денис Майданов"
    INDEX 00 34:09:38
    INDEX 01 34:11:38
  TRACK 10 AUDIO
    TITLE "Моя религия"
    PERFORMER "Денис Майданов"
    INDEX 00 38:50:72
    INDEX 01 38:52:72
  TRACK 11 AUDIO
    TITLE "Ледяные пули"
    PERFORMER "Денис Майданов"
    INDEX 00 42:54:71
    INDEX 01 42:56:71
  TRACK 12 AUDIO
    TITLE "48 часов (Radio Edit)"
    PERFORMER "Денис Майданов"
    INDEX 00 46:52:39
    INDEX 01 46:54:39
  TRACK 13 AUDIO
    TITLE "Стеклянная любовь (feat. Филипп Киркоров)"
    PERFORMER "Денис Майданов"
    INDEX 00 50:52:53
    INDEX 01 50:54:53
  TRACK 14 AUDIO
    TITLE "36,6 (Full Version)"
    PERFORMER "Денис Майданов"
    INDEX 00 54:54:67
    INDEX 01 54:56:67
Время раздачи: 24/7 (круглосуточно)--
[Профиль] [ЛС]

Создавать темы 13-Авг-2015 10:05 (спустя 8 месяцев 23 дня)

Топик был перенесен из форума Отечественная в форум Pop
sergej644
 
Кто просматривает тему:

Показать сообщения:    

Текущее время: Сегодня 07:03

Часовой пояс: GMT



Вы не можете начинать темы
Вы не можете отвечать на сообщения
Вы не можете редактировать свои сообщения
Вы не можете удалять свои сообщения
Вы не можете голосовать в опросах
Вы не можете прикреплять файлы к сообщениям
Вы не можете скачивать файлы