Демон [фильм первый] (2015) HDRip 1080p

 
Автор Сообщение

достали все ®

Пол:

Стаж: 1 год 8 месяцев

Сообщений: 6613



Награды: 12 (Подробнее)

Mega Seeder 2 (Количество: 1) Top Releaser 4 (Количество: 1) Mega Seeder 3 (Количество: 1)
Торрент-статистика

Создавать темы 13-Апр-2015 08:48

[Цитировать]

Информация о фильме
Название: Демон
Год выхода: 2015
Жанр: Ужасы, мистика
Режиссер: Александр Дядюра
В ролях: Карина и Александр Дядюра,
О фильме:
Александр и Карина переезжают в новую квартиру, в которой начинают происходить странные события. Они решают установить видеокамеры и записывать все что происходит
Страна: Россия
Студия: diadiura studio
Продолжительность: 01:17:30
Перевод: Не требуется
Файл
Кодек: MPEG-4 AVC
Качество: HDRip
Видео: HDRip 1080p,1920x1080, 25 fps, 13.4 Mbps
Звук: AAC, 128 Kbps, 48.0 KHz

Скриншоты

MediaInfo

General
Complete name : Demon.2015.HDRip.7400MB.mp4
Format : MPEG-4
Format profile : Base Media / Version 2
Codec ID : mp42
File size : 7.32 GiB
Duration : 1h 17mn
Overall bit rate mode : Variable
Overall bit rate : 13.5 Mbps
Encoded date : UTC 2015-04-11 08:41:10
Tagged date : UTC 2015-04-11 08:41:10
Video
ID : 2
Format : AVC
Format/Info : Advanced Video Codec
Format profile : High@L4.0
Format settings, CABAC : Yes
Format settings, ReFrames : 2 frames
Format settings, GOP : M=2, N=13
Codec ID : avc1
Codec ID/Info : Advanced Video Coding
Duration : 1h 17mn
Source duration : 1h 17mn
Bit rate mode : Variable
Bit rate : 13.4 Mbps
Maximum bit rate : 16.0 Mbps
Width : 1 920 pixels
Height : 1 080 pixels
Display aspect ratio : 16:9
Frame rate mode : Constant
Frame rate : 25.000 fps
Color space : YUV
Chroma subsampling : 4:2:0
Bit depth : 8 bits
Scan type : Progressive
Bits/(Pixel*Frame) : 0.258
Stream size : 7.25 GiB (99%)
Source stream size : 7.25 GiB (99%)
Language : English
Encoded date : UTC 2015-04-11 08:41:10
Tagged date : UTC 2015-04-11 08:41:10
Audio
ID : 1
Format : AAC
Format/Info : Advanced Audio Codec
Format profile : LC
Codec ID : 40
Duration : 1h 17mn
Source duration : 1h 17mn
Bit rate mode : Constant
Bit rate : 128 Kbps
Channel(s) : 2 channels
Channel positions : Front: L R
Sampling rate : 48.0 KHz
Compression mode : Lossy
Stream size : 71.0 MiB (1%)
Source stream size : 71.0 MiB (1%)
Language : English
Encoded date : UTC 2015-04-11 08:41:10
Tagged date : UTC 2015-04-11 08:41:10
[Профиль] [ЛС]
Показать сообщения:    

Текущее время: Сегодня 22:38

Часовой пояс: GMT



Вы не можете начинать темы
Вы не можете отвечать на сообщения
Вы не можете редактировать свои сообщения
Вы не можете удалять свои сообщения
Вы не можете голосовать в опросах
Вы не можете прикреплять файлы к сообщениям
Вы не можете скачивать файлы