Демоны / Demons (1985) BDRip 720p от HDClub

 
Автор Сообщение

sergej644 ®

Пол:

Стаж: 4 года 11 месяцев

Сообщений: 6046

Откуда: Soviet Union



Награды: Нет

Торрент-статистика

Создавать темы 10-Фев-2015 10:13

[Цитировать]

Информация о фильме
Название: Демоны
Оригинальное название: Demons
Год выхода: 1985
Жанр: Ужасы
Режиссер: Ламберто Бава
В ролях: Урбано Барберини, Наташа Хови, Карл Синни, Фьоре Ардженто, Паола Коццо, Фабиола Толедо, Николетта Элми, Stelio Candelli, Николь Тессьер, Джеретта Джеретта и др.
Описание: Молодая девушка Шерил вместе с подругой получает в метро приглашение от странного человека в серебряной маске на премьерный показ нового фильма ужасов о демонах, нашествие которых якобы предсказал Нострадамус.
Сеанс должен состояться в одном из только что отремонтированных берлинских кинотеатров под названием «Метрополь». В его фойе одна из посетительниц видит манекен в серебряной маске демона и шутки ради примеряет эту маску, чтобы сфотографироваться в ней. Поранившись обо что-то острое внутри маски, девушка с недовольным видом идет в зал. Происходящее на экране странно напоминает то, что в действительности произошло перед сеансом — та же маска и кто-то из героев поранился о нее… Как раз на моменте, когда молодой человек на экране читает отрывок из книги Нострадамуса, повествующий о том, что всякий, надевший маску, превратится в демона, поранившейся посетительнице становится плохо, и она идет в женскую комнату лишь для того… чтобы пророчество Нострадамуса сбылось…
Очень скоро и остальные зрители кинотеатра убедятся в том, что демоны бывают не только на экране, и Шерил вместе с ее друзьями по несчастью предстоит кровавая схватка с полчищами порождений ада…

Страна: Италия
Продолжительность: 01:28:36
Перевод: Профессиональный (многоголосый, закадровый) R5
+ Авторский (Гаврилов Андрей)
+ Авторский (Живов Юрий)
+ Авторский (Дольский Андрей)
+ Авторский (Володарский Леонид)
+ Одноголосый (Зереницын Сергей) ранний
+ Одноголосый (Зереницын Сергей) поздний
+ Одноголосый закадровый №1
+ Одноголосый закадровый №2
+ Оригинал

Файл
Кодек: x264
Качество: BDRip 720p
Видео: 1194x720 (1.658); 8085 Kbps; 23,976 fps
Аудио №01: Russian; FLAC; 554 Kbps; VBR; 2 ch; 16 bit MVO скачать AC3
Аудио №02: Russian; FLAC; 547 Kbps; VBR; 2 ch; 16 bit Гаврилов скачать AC3
Аудио №03: Russian; FLAC; 555 Kbps; VBR; 2 ch; 16 bit Живов скачать AC3
Аудио №04: Russian; AC3; 192 Kbps; CBR; 2 ch; 16 bit Дольский
Аудио №05: Russian; AC3; 192 Kbps; CBR; 2 ch; 16 bit Володарский
Аудио №06: Russian; AC3; 192 Kbps; CBR; 2 ch; 16 bit Зереницын ранний
Аудио №07: Russian; AC3; 192 Kbps; CBR; 2 ch; 16 bit Зереницын поздний
Аудио №08: Russian; AC3; 192 Kbps; CBR; 2 ch; 16 bit VO #1
Аудио №09: Russian; AC3; 192 Kbps; CBR; 2 ch; 16 bit VO #2
Аудио №10: English; FLAC; 600 Kbps; VBR; 2 ch; 16 bit скачать AC3
Аудио №11: English; AC3; 192 Kbps; CBR; 2 ch; 16 bit Commentary
Субтитры: Russian, English, English (SDH), English (Commentary)

Скриншоты

MI

General
Unique ID : 245862917001445094125506298086044183496 (0xB8F779B441B18E1F9760772EC0B3ABC8)
Complete name : Demons.1-2.1985-1986.720p.BluRay.Rus.Eng.HDCLUB-SkazhutinDemoni.1985.720p.BluRay.9xRus.2xEng.HDCLUB-Skazhutin.mkv
Format : Matroska
Format version : Version 2
File size : 7.24 GiB
Duration : 1h 28mn
Overall bit rate mode : Variable
Overall bit rate : 11.7 Mbps
Movie name : Dèmoni (1985) - Release for HDCLUB by Skazhutin
Encoded date : UTC 2012-05-27 06:15:18
Writing application : mkvmerge v5.5.0 ('Healer') built on Apr 6 2012 21:43:24
Writing library : libebml v1.2.3 + libmatroska v1.3.0
Attachment : Yes / Yes
Video
ID : 1
Format : AVC
Format/Info : Advanced Video Codec
Format profile : High@L4.1
Format settings, CABAC : Yes
Format settings, ReFrames : 9 frames
Codec ID : V_MPEG4/ISO/AVC
Duration : 1h 28mn
Width : 1 194 pixels
Height : 720 pixels
Display aspect ratio : 1.658
Frame rate : 23.976 fps
Color space : YUV
Chroma subsampling : 4:2:0
Bit depth : 8 bits
Scan type : Progressive
Title : Release for HDCLUB
Writing library : x264 core 125 r2200kMod 999b753
Encoding settings : cabac=1 / ref=9 / deblock=1:-3:-3 / analyse=0x3:0x113 / me=umh / subme=11 / psy=1 / fade_compensate=0.00 / psy_rd=1.00:0.00 / mixed_ref=1 / me_range=48 / chroma_me=1 / trellis=2 / 8x8dct=1 / cqm=0 / deadzone=21,11 / fast_pskip=1 / chroma_qp_offset=-2 / threads=12 / lookahead_threads=2 / sliced_threads=0 / nr=0 / decimate=1 / interlaced=0 / bluray_compat=0 / constrained_intra=0 / bframes=16 / b_pyramid=2 / b_adapt=2 / b_bias=0 / direct=1 / weightb=1 / open_gop=0 / weightp=2 / keyint=250 / keyint_min=23 / scenecut=40 / intra_refresh=0 / rc_lookahead=40 / rc=crf / mbtree=0 / crf=16.5000 / qcomp=0.60 / qpmin=0 / qpmax=69 / qpstep=4 / vbv_maxrate=50000 / vbv_bufsize=62500 / crf_max=0.0 / nal_hrd=none / ip_ratio=1.40 / pb_ratio=1.30 / aq=2:1.00
Language : English
Default : Yes
Forced : No
Matrix coefficients : BT.709-5, BT.1361, IEC 61966-2-4 709, SMPTE RP177
Audio #1
ID : 2
Format : FLAC
Format/Info : Free Lossless Audio Codec
Codec ID : A_FLAC
Duration : 1h 28mn
Bit rate mode : Variable
Channel(s) : 2 channels
Sampling rate : 48.0 KHz
Bit depth : 16 bits
Title : FLAC 2.0 @ 554 kbps - Многоголосый, R5
Writing library : libFLAC 1.2.1 (UTC 2007-09-17)
Language : Russian
Default : Yes
Forced : No
Audio #2
ID : 3
Format : FLAC
Format/Info : Free Lossless Audio Codec
Codec ID : A_FLAC
Duration : 1h 28mn
Bit rate mode : Variable
Channel(s) : 2 channels
Sampling rate : 48.0 KHz
Bit depth : 16 bits
Title : FLAC 2.0 @ 547 kbps - Одноголосый, А. Гаврилов
Writing library : libFLAC 1.2.1 (UTC 2007-09-17)
Language : Russian
Default : No
Forced : No
Audio #3
ID : 4
Format : FLAC
Format/Info : Free Lossless Audio Codec
Codec ID : A_FLAC
Duration : 1h 28mn
Bit rate mode : Variable
Channel(s) : 2 channels
Sampling rate : 48.0 KHz
Bit depth : 16 bits
Title : FLAC 2.0 @ 555 kbps - Одноголосый, Ю. Живов
Writing library : libFLAC 1.2.1 (UTC 2007-09-17)
Language : Russian
Default : No
Forced : No
Audio #4
ID : 5
Format : AC-3
Format/Info : Audio Coding 3
Mode extension : CM (complete main)
Format settings, Endianness : Big
Codec ID : A_AC3
Duration : 1h 28mn
Bit rate mode : Constant
Bit rate : 192 Kbps
Channel(s) : 2 channels
Channel positions : Front: L R
Sampling rate : 48.0 KHz
Bit depth : 16 bits
Compression mode : Lossy
Stream size : 122 MiB (2%)
Title : AC3 2.0 @ 192 kbps - Одноголосый, А. Дольский
Language : Russian
Default : No
Forced : No
Audio #5
ID : 6
Format : AC-3
Format/Info : Audio Coding 3
Mode extension : CM (complete main)
Format settings, Endianness : Big
Codec ID : A_AC3
Duration : 1h 28mn
Bit rate mode : Constant
Bit rate : 192 Kbps
Channel(s) : 2 channels
Channel positions : Front: L R
Sampling rate : 48.0 KHz
Bit depth : 16 bits
Compression mode : Lossy
Stream size : 122 MiB (2%)
Title : AC3 2.0 @ 192 kbps - Одноголосый, Л. Володарский
Language : Russian
Default : No
Forced : No
Audio #6
ID : 7
Format : AC-3
Format/Info : Audio Coding 3
Mode extension : CM (complete main)
Format settings, Endianness : Big
Codec ID : A_AC3
Duration : 1h 28mn
Bit rate mode : Constant
Bit rate : 192 Kbps
Channel(s) : 2 channels
Channel positions : Front: L R
Sampling rate : 48.0 KHz
Bit depth : 16 bits
Compression mode : Lossy
Stream size : 122 MiB (2%)
Title : AC3 2.0 @ 192 kbps - Одноголосый, С. Зереницын (ранний)
Language : Russian
Default : No
Forced : No
Audio #7
ID : 8
Format : AC-3
Format/Info : Audio Coding 3
Mode extension : CM (complete main)
Format settings, Endianness : Big
Codec ID : A_AC3
Duration : 1h 28mn
Bit rate mode : Constant
Bit rate : 192 Kbps
Channel(s) : 2 channels
Channel positions : Front: L R
Sampling rate : 48.0 KHz
Bit depth : 16 bits
Compression mode : Lossy
Stream size : 122 MiB (2%)
Title : AC3 2.0 @ 192 kbps - Одноголосый, С. Зереницын (поздний)
Language : Russian
Default : No
Forced : No
Audio #8
ID : 9
Format : AC-3
Format/Info : Audio Coding 3
Mode extension : CM (complete main)
Format settings, Endianness : Big
Codec ID : A_AC3
Duration : 1h 28mn
Bit rate mode : Constant
Bit rate : 192 Kbps
Channel(s) : 2 channels
Channel positions : Front: L R
Sampling rate : 48.0 KHz
Bit depth : 16 bits
Compression mode : Lossy
Stream size : 122 MiB (2%)
Title : AC3 2.0 @ 192 kbps - Одноголосый, #1
Language : Russian
Default : No
Forced : No
Audio #9
ID : 10
Format : AC-3
Format/Info : Audio Coding 3
Mode extension : CM (complete main)
Format settings, Endianness : Big
Codec ID : A_AC3
Duration : 1h 28mn
Bit rate mode : Constant
Bit rate : 192 Kbps
Channel(s) : 2 channels
Channel positions : Front: L R
Sampling rate : 48.0 KHz
Bit depth : 16 bits
Compression mode : Lossy
Stream size : 122 MiB (2%)
Title : AC3 2.0 @ 192 kbps - Одноголосый, #2
Language : Russian
Default : No
Forced : No
Audio #10
ID : 11
Format : FLAC
Format/Info : Free Lossless Audio Codec
Codec ID : A_FLAC
Duration : 1h 28mn
Bit rate mode : Variable
Channel(s) : 2 channels
Sampling rate : 48.0 KHz
Bit depth : 16 bits
Title : FLAC 2.0 @ 600 kbps
Writing library : libFLAC 1.2.1 (UTC 2007-09-17)
Language : English
Default : No
Forced : No
Audio #11
ID : 12
Format : AC-3
Format/Info : Audio Coding 3
Mode extension : CM (complete main)
Format settings, Endianness : Big
Codec ID : A_AC3
Duration : 1h 28mn
Bit rate mode : Constant
Bit rate : 192 Kbps
Channel(s) : 2 channels
Channel positions : Front: L R
Sampling rate : 48.0 KHz
Bit depth : 16 bits
Compression mode : Lossy
Stream size : 122 MiB (2%)
Title : AC3 2.0 @ 192 kbps - Commentary
Language : English
Default : No
Forced : No
Text #1
ID : 13
Format : UTF-8
Codec ID : S_TEXT/UTF8
Codec ID/Info : UTF-8 Plain Text
Language : Russian
Default : No
Forced : No
Text #2
ID : 14
Format : UTF-8
Codec ID : S_TEXT/UTF8
Codec ID/Info : UTF-8 Plain Text
Language : English
Default : No
Forced : No
Text #3
ID : 15
Format : UTF-8
Codec ID : S_TEXT/UTF8
Codec ID/Info : UTF-8 Plain Text
Language : English
Default : No
Forced : No
Text #4
ID : 16
Format : UTF-8
Codec ID : S_TEXT/UTF8
Codec ID/Info : UTF-8 Plain Text
Title : Commentary
Language : English
Default : No
Forced : No
Menu
00:00:00.000 : en:Chapter 1
00:06:41.818 : en:Chapter 2
00:13:48.827 : en:Chapter 3
00:21:05.681 : en:Chapter 4
00:32:47.382 : en:Chapter 5
00:39:21.776 : en:Chapter 6
00:51:47.854 : en:Chapter 7
00:58:08.902 : en:Chapter 8
01:05:26.339 : en:Chapter 9
01:14:07.192 : en:Chapter 10
01:21:32.304 : en:Chapter 11
01:26:08.162 : en:Chapter 12
[Профиль] [ЛС]
Показать сообщения:    

Текущее время: Сегодня 09:12

Часовой пояс: GMT



Вы не можете начинать темы
Вы не можете отвечать на сообщения
Вы не можете редактировать свои сообщения
Вы не можете удалять свои сообщения
Вы не можете голосовать в опросах
Вы не можете прикреплять файлы к сообщениям
Вы не можете скачивать файлы