Демоны Джун / June (2015) WEBRip 1080p | Трейлер

 
Автор Сообщение

BOSS ®

Пол:

Стаж: 2 года 2 месяца

Сообщений: 3751

Откуда: ODESSA



Награды: 20 (Подробнее)

Mega Seeder 2 (Количество: 1) Top Releaser 3 (Количество: 1) Top Seeder 3 (Количество: 1)
Торрент-статистика

Создавать темы 14-Июн-2015 15:53

[Цитировать]

Год выпуска: 2014
Производство: США
Жанр: ужасы, фантастика
Перевод: Дублированный
Режиссер: Л. Густаво Купер
Продюсеры: Л. Густаво Купер, Джеймс Флер, Jacquelyn Frisco
Актеры: Кеннеди Брайс, Виктория Прэтт,Эдди Джемисон, Лэнс Э. Николс, Каспер Ван Дин, Эдди Миллер, Эйден Флауэрс, Rachel Whitman Groves, ЛаКуита С-Кэй, Карсен Флауэрс
Описание фильма:
История девятилетней сироты, которая стала сосудом для сверхъестественного существа по имени Аер. Аер выходит наружу, когда Джун теряет над собой контроль, если другие дети дразнят, пугают или унижают её. Мечтавшая о семье Джун быстро привыкает к своим новым приемным родителям, Лили и Дэйву, но теперь ей предстоит открыть свое настоящее имя, чтобы победить своего внутреннего демона, спасти себя и свою новую семью, найти любовь и признание в этом хаотичном мире.
Дата мировой премьеры: -
Дата российской премьеры: 1 октября 2015

Продолжительность: 00:01:24
Качество видео: WEBRip
Видеокодек: MPEG-4 AVC/H.264
Битрейт видео: 7791 Кбит/сек
Размер кадра: 1920x800
Аудиокодек: AAC
Битрейт аудио: 96,0 Кбит/сек

MediaInfo:

Общее
Полное имя : June.mp4
Формат : MPEG-4
Профиль формата : Base Media
Идентификатор кодека : isom
Размер файла : 79,9 Мбайт
Продолжительность : 1 м. 24 с.
Режим общего битрейта : Переменный
Общий поток : 7891 Кбит/сек
Дата кодирования : UTC 2015-06-08 13:52:57
Дата пометки : UTC 2015-06-08 13:52:57
Программа кодирования : Lavf51.12.1
Видео
Идентификатор : 1
Формат : AVC
Формат/Информация : Advanced Video Codec
Профиль формата : Baseline@L4
Параметр CABAC формата : Нет
Параметр ReFrames формата : 1 кадр
Параметр GOP формата : M=1, N=12
Идентификатор кодека : avc1
Идентификатор кодека/Информация : Advanced Video Coding
Продолжительность : 1 м. 24 с.
Битрейт : 7791 Кбит/сек
Ширина : 1920 пикселей
Высота : 800 пикселей
Соотношение сторон : 2,40:1
Режим частоты кадров : Постоянный
Частота кадров : 24,000 кадра/сек
Цветовое пространство : YUV
Субдискретизация насыщенности : 4:2:0
Битовая глубина : 8 бит
Тип развёртки : Прогрессивная
Бит/(Пиксели*Кадры) : 0.211
Размер потока : 78,9 Мбайт (99%)
Дата кодирования : UTC 2015-06-08 13:52:57
Дата пометки : UTC 2015-06-08 13:52:57
Аудио
Идентификатор : 2
Формат : AAC
Формат/Информация : Advanced Audio Codec
Профиль формата : LC
Идентификатор кодека : 40
Продолжительность : 1 м. 24 с.
Вид битрейта : Переменный
Битрейт : 96,0 Кбит/сек
Каналы : 2 канала
Расположение каналов : Front: L R
Частота : 48,0 КГц
Метод сжатия : С потерями
Размер потока : 986 Кбайт (1%)
Дата кодирования : UTC 2015-06-08 13:52:57
Дата пометки : UTC 2015-06-08 13:52:57
Скриншоты - -

Скриншоты

[Профиль] [ЛС]
Показать сообщения:    

Текущее время: Сегодня 12:08

Часовой пояс: GMT



Вы не можете начинать темы
Вы не можете отвечать на сообщения
Вы не можете редактировать свои сообщения
Вы не можете удалять свои сообщения
Вы не можете голосовать в опросах
Вы не можете прикреплять файлы к сообщениям
Вы не можете скачивать файлы