Демоны Деборы Логан / The Taking (Адам Робител / Adam Robitel) [2015, США, ужасы, триллер, HDRip] Dub + Original Eng

 
Автор Сообщение

TorrentFilm ®

Пол:

Стаж: 2 года

Сообщений: 7741



Награды: Нет

Торрент-статистика

Создавать темы 26-Июн-2015 00:06

[Цитировать]

Демоны Деборы Логан / The Taking
Страна: США
Жанр: ужасы, триллер
Год выпуска: 2015
Продолжительность: 01:30:03
Перевод: Профессиональный (дублированный)
Cубтитры: нет
Оригинальная аудиодорожка: английский
Режиссер: Адам Робител / Adam Robitel
В ролях: Джилл Ларсон, Энн Рэмси, Мишель Энг, Райан Кутрона, Энн Нахабидиан, Бретт Джентиле, Джереми ДеКарлос, Тоня Бладсворт, Джулианна Тейлор, Яна Аллен
Описание: Группа студентов, снимающая фильм о болезни Альцгеймера и превратившая беднягу Дебору Логан в подобие подопытного кролика, столкнется с чем-то необъяснимым и ужасающим, выходящим за грань разумного и постепенно овладевающим женщиной. Для того чтобы понять причину всего происходящего, им придется окунуться в историю, таящую в себе жуткие моменты, от которых кровь стынет в жилах.
Доп. информация: http://www.kinopoisk.ru/film/814400/
http://www.imdb.com/title/tt3387648/?ref_=fn_al_tt_1
Сэмпл: http://sendfile.su/1130441
Качество видео: HDRip
Формат видео: AVI
Видео: XviD, 1778 Кбит/с, 720x384, 23.976 fps
Аудио: RUS: AC3, 2 ch, 192 Кбит/с, 48.0 KHz
Аудио 2: ENG: AC3, 2 ch, 192 Кбит/с, 48.0 KHz

MediaInfo

General
Complete name : E:\Dem0Hy.D.L0gaH.2014.D.HDRip.freerutor.avi
Format : AVI
Format/Info : Audio Video Interleave
File size : 1.37 GiB
Duration : 1h 30mn
Overall bit rate : 2 177 Kbps
Writing application : VirtualDubMod 1.5.10.2 (build 2540/release)
Writing library : VirtualDubMod build 2540/release
Video
ID : 0
Format : MPEG-4 Visual
Format profile : Advanced Simple@L5
Format settings, BVOP : 2
Format settings, QPel : No
Format settings, GMC : No warppoints
Format settings, Matrix : Default (MPEG)
Codec ID : XVID
Codec ID/Hint : XviD
Duration : 1h 30mn
Bit rate : 1 779 Kbps
Width : 720 pixels
Height : 384 pixels
Display aspect ratio : 1.85:1
Frame rate : 23.976 fps
Color space : YUV
Chroma subsampling : 4:2:0
Bit depth : 8 bits
Scan type : Progressive
Compression mode : Lossy
Bits/(Pixel*Frame) : 0.268
Stream size : 1.12 GiB (82%)
Writing library : XviD 1.2.1 (UTC 2008-12-04)
Audio #1
ID : 1
Format : AC-3
Format/Info : Audio Coding 3
Mode extension : CM (complete main)
Format settings, Endianness : Big
Codec ID : 2000
Duration : 1h 30mn
Bit rate mode : Constant
Bit rate : 192 Kbps
Channel(s) : 2 channels
Channel positions : Front: L R
Sampling rate : 48.0 KHz
Compression mode : Lossy
Stream size : 124 MiB (9%)
Alignment : Split accross interleaves
Interleave, duration : 42 ms (1.00 video frame)
Interleave, preload duration : 500 ms
Audio #2
ID : 2
Format : AC-3
Format/Info : Audio Coding 3
Mode extension : CM (complete main)
Format settings, Endianness : Big
Codec ID : 2000
Duration : 1h 30mn
Bit rate mode : Constant
Bit rate : 192 Kbps
Channel(s) : 6 channels
Channel positions : Front: L C R, Side: L R, LFE
Sampling rate : 48.0 KHz
Compression mode : Lossy
Stream size : 124 MiB (9%)
Alignment : Split accross interleaves
Interleave, duration : 42 ms (1.00 video frame)
Interleave, preload duration : 500 ms

Скриншот c названием фильма

Скриншоты











[Профиль] [ЛС]
Показать сообщения:    

Текущее время: Сегодня 16:41

Часовой пояс: GMT



Вы не можете начинать темы
Вы не можете отвечать на сообщения
Вы не можете редактировать свои сообщения
Вы не можете удалять свои сообщения
Вы не можете голосовать в опросах
Вы не можете прикреплять файлы к сообщениям
Вы не можете скачивать файлы