Демократия Массового Поражения (Денис Аргутинский) [2015, Документальный, HDTV 720p]

 
Автор Сообщение

TorrentFilm ®

Пол:

Стаж: 1 год 11 месяцев

Сообщений: 7741



Награды: Нет

Торрент-статистика

Создавать темы 18-Апр-2015 00:03

[Цитировать]

Демократия Массового Поражения- Год выпуска: 2015
Страна: Россия
Канал: Россия HD
Жанр: Документальный
Продолжительность: 0:52:00
Автор: Павел Селин
Режиссер: Денис Аргутинский-Описание: С ядерной бомбежки Японии в годы второй мировой войны и до сегодняшнего дня Соединенные Штаты Америки участвовали практически во всех военных конфликтах в разных точках планеты: Корея, Вьетнам, Куба, Латинская Америка, Югославия, Ирак, Афганистан, Сирия... Называя себя "глобальным миротворцем и оплотом демократии", США давно уже пытаются стать "мировым жандармом", преследуя свои собственные интересы и применяя новейшее и постоянно развивающееся оружие массового поражения.-Автор рипа: lrn
Автор записи: Alexin29
Сэмпл: sendfile-Тип релиза: HDTV 720p
Контейнер: MKV
Видео: 1280x720 (16:9), 25,000 fps, H264, ~4000 kbps avg, ~0.174 bit/pixel
Аудио: 48 kHz, AC3 Dolby Digital, 2/0 (L,R) ch, ~192.00 kbps avg-

MediaInfo

GeneralUnique ID : 176926603014396891721835518773524074655 (0x851AD30362C72C709C87CE689696909F)Complete name : E:\uTorrent.Temp\Temp\Demokratiya.Massovogo.Porajeniya.2015.HDTV.720p.x264-lrn.mkvFormat : MatroskaFormat version : Version 4 / Version 2File size : 1.52 GiBDuration : 52mn 0sOverall bit rate : 4 193 KbpsMovie name : Demokratiya.Massovogo.Porajeniya.2015.HDTV.720p.x264-lrnEncoded date : UTC 2010-02-22 21:41:31Writing application : mkvmerge v5.9.0 ('On The Loose') built on Dec 9 2012 15:37:01Writing library : libebml v1.3.0 + libmatroska v1.4.0
VideoID : 1Format : AVCFormat/Info : Advanced Video CodecFormat profile : High@L4.1Format settings, CABAC : YesFormat settings, ReFrames : 8 framesCodec ID : V_MPEG4/ISO/AVCDuration : 52mn 0sBit rate : 4 000 KbpsWidth : 1 280 pixelsHeight : 720 pixelsDisplay aspect ratio : 16:9Frame rate mode : ConstantFrame rate : 25.000 fpsColor space : YUVChroma subsampling : 4:2:0Bit depth : 8 bitsScan type : ProgressiveBits/(Pixel*Frame) : 0.174Stream size : 1.42 GiB (93%)Writing library : x264 core 142 r2479 dd79a61Encoding settings : cabac=1 / ref=8 / deblock=1:-3:-3 / analyse=0x3:0x113 / me=umh / subme=9 / psy=1 / psy_rd=1.00:0.00 / mixed_ref=1 / me_range=32 / chroma_me=1 / trellis=2 / 8x8dct=1 / cqm=0 / deadzone=21,11 / fast_pskip=1 / chroma_qp_offset=-4 / threads=12 / lookahead_threads=2 / sliced_threads=0 / nr=0 / decimate=1 / interlaced=0 / bluray_compat=0 / constrained_intra=0 / bframes=8 / b_pyramid=2 / b_adapt=2 / b_bias=0 / direct=1 / weightb=1 / open_gop=0 / weightp=2 / keyint=250 / keyint_min=25 / scenecut=40 / intra_refresh=0 / rc_lookahead=50 / rc=2pass / mbtree=1 / bitrate=4000 / ratetol=1.0 / qcomp=0.60 / qpmin=0 / qpmax=69 / qpstep=4 / cplxblur=20.0 / qblur=0.5 / vbv_maxrate=62500 / vbv_bufsize=78125 / nal_hrd=none / filler=0 / ip_ratio=1.40 / aq=1:1.00Default : YesForced : NoColor primaries : BT.709Transfer characteristics : BT.709Matrix coefficients : BT.709Color range : Limited
AudioID : 2Format : AC-3Format/Info : Audio Coding 3Mode extension : CM (complete main)Format settings, Endianness : BigCodec ID : A_AC3Duration : 52mn 0sBit rate mode : ConstantBit rate : 192 KbpsChannel(s) : 2 channelsChannel positions : Front: L RSampling rate : 48.0 KHzBit depth : 16 bitsCompression mode : LossyDelay relative to video : 79msStream size : 71.4 MiB (5%)Language : RussianDefault : YesForced : No

x264 log

x264 [info]: using SAR=4311/4304x264 [info]: using cpu capabilities: MMX2 SSE2Fast SSSE3 SSE4.2 AVXx264 [info]: profile High, level 4.1x264 [info]: frame I:612 Avg QP:14.16 size:107894x264 [info]: frame P:21565 Avg QP:17.00 size: 37686x264 [info]: frame B:55843 Avg QP:19.08 size: 12205x264 [info]: consecutive B-frames: 3.7% 5.1% 5.9% 71.6% 5.2% 4.7% 1.3% 2.0% 0.5%x264 [info]: mb I I16..4: 7.2% 72.4% 20.4%x264 [info]: mb P I16..4: 4.8% 20.9% 3.1% P16..4: 34.4% 20.3% 9.7% 0.0% 0.0% skip: 6.8%x264 [info]: mb B I16..4: 1.0% 3.7% 0.4% B16..8: 30.3% 9.8% 2.2% direct:10.4% skip:42.2% L0:42.2% L1:42.7% BI:15.1%x264 [info]: 8x8 transform intra:72.6% inter:64.9%x264 [info]: coded y,uvDC,uvAC intra: 66.8% 66.8% 43.8% inter: 24.2% 31.5% 4.7%x264 [info]: i16 v,h,dc,p: 33% 33% 6% 29%x264 [info]: i8 v,h,dc,ddl,ddr,vr,hd,vl,hu: 17% 16% 10% 6% 9% 10% 10% 10% 12%x264 [info]: i4 v,h,dc,ddl,ddr,vr,hd,vl,hu: 13% 36% 6% 5% 8% 8% 9% 6% 8%x264 [info]: i8c dc,h,v,p: 46% 26% 19% 9%x264 [info]: Weighted P-Frames: Y:9.4% UV:5.3%x264 [info]: ref P L0: 55.3% 10.8% 16.0% 5.3% 4.3% 3.1% 2.9% 2.0% 0.2% 0.0%x264 [info]: ref B L0: 76.8% 11.1% 5.1% 2.8% 2.1% 1.3% 0.7%x264 [info]: ref B L1: 94.9% 5.1%x264 [info]: kb/s:3999.69

Скриншоты

-

-
Сообщения из этой темы были выделены в отдельную тему Оффтоп из: Демократия Массового Поражения (Денис Аргутинский) [2015, Документальный, HDTV... [4982457]
IlyaSin
[Профиль] [ЛС]
Кто просматривает тему:

Форум Тема Автор Размер
Разная литература Шарп Дж. - От диктатуры к демократии [2003, PDF/DOC/FB2, RUS] Garik014 1 MB
Показать сообщения:    

Текущее время: Сегодня 20:04

Часовой пояс: GMT



Вы не можете начинать темы
Вы не можете отвечать на сообщения
Вы не можете редактировать свои сообщения
Вы не можете удалять свои сообщения
Вы не можете голосовать в опросах
Вы не можете прикреплять файлы к сообщениям
Вы не можете скачивать файлы