Деметрий и гладиаторы / Demetrius and the Gladiators (1954) BDRip от Koenig | P

 
Автор Сообщение

Russian Mafia ®

Пол:

Стаж: 1 год 8 месяцев

Сообщений: 4253



Награды: 10 (Подробнее)

Top Releaser 5 (Количество: 1) За внесенный вклад в развитие сайта (Количество: 1) Mega Seeder 5 (Количество: 1)
Торрент-статистика

Создавать темы 27-Авг-2016 16:41

[Цитировать]

Информация о фильме
Название: Деметрий и гладиаторы
Оригинальное название: Demetrius and the Gladiators
Год выхода: 1954
Жанр: Боевик, драма, история
Режиссер: Дэлмер Дэйвс
В ролях: Виктор Мэтьюр, Сьюзен Хэйуорд, Майкл Ренни, Дебра Пейджит, Энн Бэнкрофт, Джей Робинсон, Бэрри Джонс, Уильям Маршалл (II), Ричард Иган, Эрнест Боргнайн
О фильме:
Своенравный римский император Калигула отправляет своих центурионов, чтобы найти багряницу — одеяние Христа при восхождении на Голгофу. Герой Виктора Матуре — бывший раб, а ныне вольноотпущенник Деметрий, неистовый приверженец христианской веры, скрывает плащаницу, за что и попадает на арену цирка в качестве гладиатора. Безумный император Калигула любил, когда на его глазах проливается кровь рабов сражающихся межу собой или с дикими хищниками. Новому гладиатору предстоит сразиться с тремя тиграми и вступить в смертельный поединок с пятеркой лучших гладиаторов Рима. Он с честью одержит победу в этих кровавых боях.

Страна: США
Студия: Twentieth Century Fox Film Corporation
Продолжительность: 01:41:07
Перевод: Профессиональный многоголосый (20-й Век Фокс СНГ)
Файл
Качество: BDRip (DEMETRIUS_AND_THE_GLADIATORS_1954_BD-REMUX_HDCLUB)
Видео: XviD, 1654 Кбит/с, 688x272, 23.976 кадр/с
Звук: АС3, 6 ch, 384 Кбит/с

MediaInfo

Общее
Полное имя : Demetrius.and.the.Gladiators.1954.BDRip.avi
Формат : AVI
Формат/Информация : Audio Video Interleave
Размер файла : 1,45 Гбайт
Продолжительность : 1 ч. 41 м.
Общий поток : 2048 Кбит/сек
Программа кодирования : VirtualDubMod 1.5.10.2 (build 2540/release)
Библиотека кодирования : VirtualDubMod build 2540/release
Видео
Идентификатор : 0
Формат : MPEG-4 Visual
Профиль формата : Advanced Simple@L5
Параметр BVOP формата : 1
Параметр QPel формата : Нет
Параметр GMC формата : Без точки перехода
Параметр матрицы формата : Default (MPEG)
Идентификатор кодека : XVID
Идентификатор кодека/Подсказка : XviD
Продолжительность : 1 ч. 41 м.
Битрейт : 1654 Кбит/сек
Ширина : 688 пикселей
Высота : 272 пикселя
Соотношение сторон : 2,529
Частота кадров : 23,976 (23976/1000) кадра/сек
Цветовое пространство : YUV
Субдискретизация насыщенности : 4:2:0
Битовая глубина : 8 бит
Тип развёртки : Прогрессивная
Метод сжатия : С потерями
Бит/(Пиксели*Кадры) : 0.369
Размер потока : 1,17 Гбайт (81%)
Библиотека кодирования : XviD 1.2.0.dev47 (UTC 2006-11-01)
Аудио
Идентификатор : 1
Формат : AC-3
Формат/Информация : Audio Coding 3
Расширение режима : CM (complete main)
Параметр Endianness формата : Big
Идентификатор кодека : 2000
Продолжительность : 1 ч. 41 м.
Вид битрейта : Постоянный
Битрейт : 384 Кбит/сек
Каналы : 6 каналов
Расположение каналов : Front: L C R, Side: L R, LFE
Частота : 48,0 КГц
Частота кадров : 31,250 кадров/сек (1536 spf)
Метод сжатия : С потерями
Размер потока : 278 Мбайт (19%)
Выравнивание : Разделение по промежуткам
Продолжительность промежутка : 42 мс. (1,00 видеокадр)
Время предзагрузки промежутка : 500 мс.

Скриншоты

[Профиль] [ЛС]
Кто просматривает тему:

Показать сообщения:    

Текущее время: Сегодня 16:58

Часовой пояс: GMT



Вы не можете начинать темы
Вы не можете отвечать на сообщения
Вы не можете редактировать свои сообщения
Вы не можете удалять свои сообщения
Вы не можете голосовать в опросах
Вы не можете прикреплять файлы к сообщениям
Вы не можете скачивать файлы