Дельфины: тест на интеллект / Dolphins: Beauty Before Brains (Бренда Спаан / Brenda Spaan) [2011, документальный, фауна, IPTVRip]

 
Автор Сообщение

TorrentFilm ®

Пол:

Стаж: 2 года 6 месяцев

Сообщений: 7773



Награды: Нет

Торрент-статистика

Создавать темы 16-Май-2015 00:03

[Цитировать]

Дельфины: тест на интеллект / Dolphins: Beauty Before Brains?
Дата/Год выпуска: 2011
Страна: ЮАР
Жанр: документальный, фауна
Продолжительность: 00:49:00
Перевод: Одноголосый закадровый
Доп. инфо о переводе: SDI-media
Русские субтитры: нет
Режиссер: Бренда Спаан / Brenda Spaan
Описание: Дельфины всегда были загадкой для человека. О них складывали множество легенд. Эти милые и дружелюбные создания веками вдохновляли и очаровывали нас, они успели завоевать доверие людей и репутацию одного из самых высокоразвитых млекопитающих. Но умны ли дельфины на самом деле? Если уровень интеллекта определяется способностями анализировать, планировать, решать задачи и учиться на собственном опыте, то какое место занимают дельфины в своем развитии?
Сэмпл: http://sendfile.su/1116200
качество: IPTVRip
формат: MKV
Видео кодек: MPEG-4 AVC/H.264
Аудио кодек: AC3
Видео: MPEG-4 AVC/H.264, 1280x720 (16:9), ~3919 kbps, 50 fps
Аудио: AC3, 192 kbps, 48.0 kHz, 2 ch

MediaInfo

ОбщееУникальный идентификатор : 168348648403719580577546155723716462494 (0x7EA6C532C2870C1E037BA147C20E879E)Формат : MatroskaВерсия формата : Version 2Размер файла : 1,44 ГбайтПродолжительность : 49 м.Общий поток : 4194 Кбит/секПрограмма кодирования : Lavf51.12.1Библиотека кодирования : Lavf51.12.1
ВидеоИдентификатор : 1Формат : AVCФормат/Информация : Advanced Video CodecПрофиль формата : Baseline@L1.3Параметр CABAC формата : НетПараметр ReFrames формата : 1 кадрПараметр GOP формата : M=1, N=12Идентификатор кодека : V_MPEG4/ISO/AVCПродолжительность : 49 м.Битрейт : 3919 Кбит/секШирина : 1280 пикселейВысота : 720 пикселейСоотношение сторон : 16:9Режим частоты кадров : ПостоянныйЧастота кадров : 50,000 кадров/секЦветовое пространство : YUVСубдискретизация насыщенности : 4:2:0Битовая глубина : 8 битТип развёртки : ПрогрессивнаяБит/(Пиксели*Кадры) : 0.085Размер потока : 1,34 Гбайт (93%)Default : ДаForced : Нет
АудиоИдентификатор : 2Формат : AC-3Формат/Информация : Audio Coding 3Расширение режима : CM (complete main)Параметр Endianness формата : BigИдентификатор кодека : A_AC3Продолжительность : 49 м.Вид битрейта : ПостоянныйБитрейт : 192 Кбит/секКаналы : 2 каналаРасположение каналов : Front: L RЧастота : 48,0 КГцБитовая глубина : 16 битМетод сжатия : С потерямиРазмер потока : 67,3 Мбайт (5%)Язык : RussianDefault : ДаForced : Нет

Скриншоты

[Профиль] [ЛС]
Кто просматривает тему:

Показать сообщения:    

Текущее время: Сегодня 04:01

Часовой пояс: GMT



Вы не можете начинать темы
Вы не можете отвечать на сообщения
Вы не можете редактировать свои сообщения
Вы не можете удалять свои сообщения
Вы не можете голосовать в опросах
Вы не можете прикреплять файлы к сообщениям
Вы не можете скачивать файлы