Дело в тебе / A Case of You (2013) BDRip 1080p от CINEMANIA | P, L

 
Автор Сообщение

sergej644 ®

Пол:

Стаж: 4 года 11 месяцев

Сообщений: 6043

Откуда: Soviet Union



Награды: Нет

Торрент-статистика

Создавать темы 21-Янв-2015 00:10

[Цитировать]

Информация о фильме
Название: Дело в тебе
Оригинальное название: A Case of You
Год выхода: 2013
Жанр: комедия, мелодрама
Режиссер: Кэт Койро
В ролях: Джастин Лонг, Эван Рэйчел Вуд, Кейр О’Доннелл, Бизи Филиппс, Сиенна Миллер, Питер Динклэйдж, Брендан Фрейзер, Сэм Рокуэлл, Винс Вон, Линн Коэн
О фильме:
Познакомившись в сети с прекрасной девушкой, начинающий писатель, желая произвести на свою собеседницу впечатление, решает слегка приукрасить свой профиль в социальной сети. Однако, когда спустя какое-то время они начинают встречаться, парню приходится несладко: признаться в обмане он не рискует, боясь потерять девушку, а соответствовать придуманному им самим идеальному образу оказывается очень сложно.

Выпущено: США
Продолжительность: 01:31:20
Озвучивание: Профессиональное (многоголосое)
Любительское (многоголосое) [Victory Films]
Файл
Формат: MKV
Качество: BDRip 1080p [IGUANA]
Видео: 8742 kb/s, 1920x808
Аудио:
Russian [Прффка]: AC3, 448 kb/s (6 ch)
Russian [Victory Films]: AC3, 192 kb/s (2 ch)
English: DTS, 1510 kb/s (6 ch)
Субтитры: Russian [Camilla77], English
Дополнительно: Сохранены оригинальные чаптеры как на Blu-Ray
Размер: 7.37 GB
Скачать: Сэмпл
Релиз группы:

Скриншоты


NFO

Общее
A.Case.of.You.2013.Blu.Ray.1080p.CINEMANIA.mkv
Формат : Matroska
Версия формата : Version 4 / Version 2
Размер файла : 7,37 Гбайт
Продолжительность : 1 ч. 31 м.
Общий поток : 11,5 Мбит/сек
Название фильма : Release Group CINEMANIA
Дата кодирования : UTC 2014-06-01 06:40:34
Программа кодирования : mkvmerge v6.9.1 ('Blue Panther') 64bit built on Apr 18 2014 18:23:38
Библиотека кодирования : libebml v1.3.0 + libmatroska v1.4.1
Видео
Идентификатор : 1
Формат : AVC
Формат/Информация : Advanced Video Codec
Профиль формата : High@L4.1
Параметр CABAC формата : Да
Параметр ReFrames формата : 5 кадров
Идентификатор кодека : V_MPEG4/ISO/AVC
Продолжительность : 1 ч. 31 м.
Битрейт : 8742 Кбит/сек
Ширина : 1920 пикселей
Высота : 808 пикселей
Соотношение сторон : 2,40:1
Режим частоты кадров : Постоянный
Частота кадров : 23,976 кадра/сек
Цветовое пространство : YUV
Субдискретизация насыщенности : 4:2:0
Битовая глубина : 8 бит
Тип развёртки : Прогрессивная
Бит/(Пиксели*Кадры) : 0.235
Размер потока : 5,44 Гбайт (74%)
Заголовок : Release Group CINEMANIA
Библиотека кодирования : x264 core 138 r2358 9e941d1
Настройки программы : cabac=1 / ref=5 / deblock=1:0:0 / analyse=0x3:0x133 / me=umh / subme=7 / psy=1 / psy_rd=1.00:0.00 / mixed_ref=1 / me_range=16 / chroma_me=1 / trellis=1 / 8x8dct=1 / cqm=0 / deadzone=21,11 / fast_pskip=0 / chroma_qp_offset=-2 / threads=12 / lookahead_threads=2 / sliced_threads=0 / nr=0 / decimate=1 / interlaced=0 / bluray_compat=0 / constrained_intra=0 / bframes=3 / b_pyramid=2 / b_adapt=2 / b_bias=0 / direct=3 / weightb=1 / open_gop=0 / weightp=2 / keyint=240 / keyint_min=23 / scenecut=40 / intra_refresh=0 / rc_lookahead=50 / rc=2pass / mbtree=1 / bitrate=8742 / ratetol=1.0 / qcomp=0.60 / qpmin=0 / qpmax=69 / qpstep=4 / cplxblur=20.0 / qblur=0.5 / ip_ratio=1.40 / aq=1:1.00
Язык : English
Default : Да
Forced : Нет
Аудио #1
Идентификатор : 2
Формат : AC-3
Формат/Информация : Audio Coding 3
Расширение режима : CM (complete main)
Параметр Endianness формата : Big
Идентификатор кодека : A_AC3
Продолжительность : 1 ч. 31 м.
Вид битрейта : Постоянный
Битрейт : 448 Кбит/сек
Каналы : 6 каналов
Расположение каналов : Front: L C R, Side: L R, LFE
Частота : 48,0 КГц
Битовая глубина : 16 бит
Метод сжатия : С потерями
Размер потока : 293 Мбайт (4%)
Заголовок : Проффка (Чистый Звук)
Язык : Russian
Default : Да
Forced : Да
Аудио #2
Идентификатор : 3
Формат : AC-3
Формат/Информация : Audio Coding 3
Расширение режима : CM (complete main)
Параметр Endianness формата : Big
Идентификатор кодека : A_AC3
Продолжительность : 1 ч. 31 м.
Вид битрейта : Постоянный
Битрейт : 192 Кбит/сек
Каналы : 2 канала
Расположение каналов : Front: L R
Частота : 48,0 КГц
Битовая глубина : 16 бит
Метод сжатия : С потерями
Размер потока : 126 Мбайт (2%)
Заголовок : Victory Films
Язык : Russian
Default : Нет
Forced : Нет
Аудио #3
Идентификатор : 4
Формат : DTS
Формат/Информация : Digital Theater Systems
Режим : 16
Параметр Endianness формата : Big
Идентификатор кодека : A_DTS
Продолжительность : 1 ч. 31 м.
Вид битрейта : Постоянный
Битрейт : 1509 Кбит/сек
Каналы : 6 каналов
Расположение каналов : Front: L C R, Side: L R, LFE
Частота : 48,0 КГц
Битовая глубина : 24 бит
Метод сжатия : С потерями
Размер потока : 988 Мбайт (13%)
Язык : English
Default : Нет
Forced : Нет
Аудио #4
Идентификатор : 5
Формат : AC-3
Формат/Информация : Audio Coding 3
Расширение режима : CM (complete main)
Параметр Endianness формата : Big
Идентификатор кодека : A_AC3
Продолжительность : 1 ч. 31 м.
Вид битрейта : Постоянный
Битрейт : 640 Кбит/сек
Каналы : 6 каналов
Расположение каналов : Front: L C R, Side: L R, LFE
Частота : 48,0 КГц
Битовая глубина : 16 бит
Метод сжатия : С потерями
Размер потока : 419 Мбайт (6%)
Язык : English
Default : Нет
Forced : Нет
Текст #1
Идентификатор : 6
Формат : UTF-8
Идентификатор кодека : S_TEXT/UTF8
Идентификатор кодека/Информация : UTF-8 Plain Text
Заголовок : Camilla77
Язык : Russian
Default : Нет
Forced : Нет
Текст #2
Идентификатор : 7
Формат : UTF-8
Идентификатор кодека : S_TEXT/UTF8
Идентификатор кодека/Информация : UTF-8 Plain Text
Язык : English
Default : Нет
Forced : Нет
Меню
00:00:00.000 : en:00:00:00.000
00:05:18.109 : en:00:05:18.109
00:14:19.067 : en:00:14:19.067
00:21:53.771 : en:00:21:53.771
00:28:23.368 : en:00:28:23.368
00:34:38.743 : en:00:34:38.743
00:42:15.658 : en:00:42:15.658
00:50:57.638 : en:00:50:57.638
00:57:45.837 : en:00:57:45.837
01:06:33.990 : en:01:06:33.990
01:16:45.768 : en:01:16:45.768
01:27:11.977 : en:01:27:11.977
[Профиль] [ЛС]
Кто просматривает тему:

Показать сообщения:    

Текущее время: Сегодня 04:22

Часовой пояс: GMT



Вы не можете начинать темы
Вы не можете отвечать на сообщения
Вы не можете редактировать свои сообщения
Вы не можете удалять свои сообщения
Вы не можете голосовать в опросах
Вы не можете прикреплять файлы к сообщениям
Вы не можете скачивать файлы