Деловые люди (Леонид Гайдай) [1962, СССР, Киноальманах, DVD5] [Крупный план, без реставрации]

 
Автор Сообщение

TorrentFilm ®

Пол:

Стаж: 2 года

Сообщений: 7741



Награды: Нет

Торрент-статистика

Создавать темы 12-Июл-2015 00:05

[Цитировать]

Деловые люди
Страна: СССР
Студия: Мосфильм
Жанр: Киноальманах
Год выпуска: 1962
Продолжительность: 01:19:45
Автор сценария
и режиссер-постановщик
: Леонид Гайдай
В ролях: Ростислав Плятт,
Георгий Вицин, Юрий Никулин,
Алексей Смирнов, Владлен Паулус,
Александр Шворин, Серёжа Тихонов и др.
Описание: Сборник короткометражных кинофильмов по новеллам О`Генри:
"Дороги, которые мы выбираем"; "Родственные души"; "Вождь краснокожих".
Меню: Отсутствует
Издатель диска: Крупный план.
Жёлтая серия. Без меню. Без реставрации.
Тип релиза: DVD5
Контейнер: DVD-Video
Видео кодек: MPEG-2
Аудио кодек: AC-3
Видео: PAL 4:3 (720x576) VBR, 5925 kbps - 8000 kbps
Аудио: Russian (Dolby AC3, 1 ch) CBR 192 kbps, Front: С, 48.0 KHz 16 bits

DVDInfo

Title: Delovie_ludi_1962_DVD5_[torrentfilm.net]Size: 3.19 Gb ( 3 342 768,00 KBytes ) - DVD-5Enabled regions: 1, 2, 3, 4, 5, 6, 7, 8
VTS_01 : Play Length: 00:00:19+01:19:45 Video: PAL 4:3 (720x576) VBR, Letterboxed Audio: Russian (Dolby AC3, 1 ch)
* Menus Information *
VIDEO_TS MenuVideo: PAL 4:3 (720x576) VBR LetterboxedEnglish Language Unit : Title Menu
VTS_01 MenuVideo: NTSC 4:3 (720x480) VBR Auto Pan&Scan, Auto LetterboxedEnglish Language Unit : Root Menu

MediaInfo

ОбщееПолное имя : E:\Delovie_ludi_1962_DVD5_[torrentfilm.net]\VIDEO_TS\VIDEO_TS.BUPФормат : DVD VideoПрофиль формата : MenuРазмер файла : 12,0 КбайтРежим общего битрейта : Переменный
ВидеоИдентификатор : 224 (0xE0)Формат : MPEG VideoВерсия формата : Version 2Вид битрейта : ПеременныйШирина : 720 пикселейВысота : 576 пикселейСоотношение сторон : 4:3Частота кадров : 25,000 кадров/секСтандарт вещания : PALМетод сжатия : С потерями
ОбщееПолное имя : E:\Delovie_ludi_1962_DVD5_[torrentfilm.net]\VIDEO_TS\VIDEO_TS.IFOФормат : DVD VideoПрофиль формата : MenuРазмер файла : 12,0 КбайтРежим общего битрейта : Переменный
ВидеоИдентификатор : 224 (0xE0)Формат : MPEG VideoВерсия формата : Version 2Вид битрейта : ПеременныйШирина : 720 пикселейВысота : 576 пикселейСоотношение сторон : 4:3Частота кадров : 25,000 кадров/секСтандарт вещания : PALМетод сжатия : С потерями
ОбщееПолное имя : E:\Delovie_ludi_1962_DVD5_[torrentfilm.net]\VIDEO_TS\VIDEO_TS.VOBФормат : MPEG-PSРазмер файла : 48,0 КбайтПродолжительность : 40 мс.Режим общего битрейта : ПеременныйОбщий поток : 9830 Кбит/сек
ВидеоИдентификатор : 224 (0xE0)Формат : MPEG VideoВерсия формата : Version 2Профиль формата : Main@MainПараметр BVOP формата : НетПараметр матрицы формата : По умолчаниюПродолжительность : 40 мс.Вид битрейта : ПеременныйМаксимальный битрейт : 9000 Кбит/секШирина : 720 пикселейВысота : 576 пикселейСоотношение сторон : 4:3Частота кадров : 25,000 кадров/секСтандарт вещания : PALЦветовое пространство : YUVСубдискретизация насыщенности : 4:2:0Битовая глубина : 8 битТип развёртки : ПрогрессивнаяПорядок развёртки : Верхнее поле первоеМетод сжатия : С потерямиВременной код первого кадра : 00:00:00:00Оригинал временного кода : Group of pictures headerОсновные цвета : BT.601 PALХарактеристики трансфера : BT.470 System B, BT.470 System GКоэффициенты матрицы : BT.601
Меню
ОбщееПолное имя : E:\Delovie_ludi_1962_DVD5_[torrentfilm.net]\VIDEO_TS\VTS_01_0.BUPФормат : DVD VideoПрофиль формата : ProgramРазмер файла : 50,0 КбайтПродолжительность : 1 ч. 19 м.Режим общего битрейта : ПеременныйОбщий поток : 86 бит/сек
ВидеоИдентификатор : 224 (0xE0)Формат : MPEG VideoВерсия формата : Version 2Продолжительность : 1 ч. 19 м.Вид битрейта : ПеременныйШирина : 720 пикселейВысота : 576 пикселейСоотношение сторон : 4:3Частота кадров : 25,000 кадров/секСтандарт вещания : PALМетод сжатия : С потерями
АудиоИдентификатор : 128 (0x80)Формат : AC-3Формат/Информация : Audio Coding 3Продолжительность : 1 ч. 19 м.Каналы : 1 каналЧастота : 48,0 КГцМетод сжатия : С потерямиЯзык : Russian
Меню #1Продолжительность : 19 с.00:00:00.000 : Chapter 1List (Audio) : 0
Меню #2Продолжительность : 1 ч. 19 м.00:00:00.000 : Chapter 100:00:36.000 : Chapter 200:01:10.000 : Chapter 300:01:24.000 : Chapter 400:02:03.000 : Chapter 500:02:17.000 : Chapter 600:02:22.320 : Chapter 700:02:41.320 : Chapter 800:03:23.320 : Chapter 900:03:26.040 : Chapter 1000:03:31.800 : Chapter 1100:03:36.480 : Chapter 1200:04:01.480 : Chapter 1300:04:05.480 : Chapter 1400:04:12.480 : Chapter 1500:04:40.480 : Chapter 1600:04:48.480 : Chapter 1700:04:51.480 : Chapter 1800:05:26.480 : Chapter 19List (Audio) : 0
Меню #3
ОбщееПолное имя : E:\Delovie_ludi_1962_DVD5_[torrentfilm.net]\VIDEO_TS\VTS_01_0.IFOФормат : DVD VideoПрофиль формата : ProgramРазмер файла : 50,0 КбайтПродолжительность : 1 ч. 19 м.Режим общего битрейта : ПеременныйОбщий поток : 86 бит/сек
ВидеоИдентификатор : 224 (0xE0)Формат : MPEG VideoВерсия формата : Version 2Продолжительность : 1 ч. 19 м.Вид битрейта : ПеременныйШирина : 720 пикселейВысота : 576 пикселейСоотношение сторон : 4:3Частота кадров : 25,000 кадров/секСтандарт вещания : PALМетод сжатия : С потерями
АудиоИдентификатор : 128 (0x80)Формат : AC-3Формат/Информация : Audio Coding 3Продолжительность : 1 ч. 19 м.Каналы : 1 каналЧастота : 48,0 КГцМетод сжатия : С потерямиЯзык : Russian
Меню #1Продолжительность : 19 с.00:00:00.000 : Chapter 1List (Audio) : 0
Меню #2Продолжительность : 1 ч. 19 м.00:00:00.000 : Chapter 100:00:36.000 : Chapter 200:01:10.000 : Chapter 300:01:24.000 : Chapter 400:02:03.000 : Chapter 500:02:17.000 : Chapter 600:02:22.320 : Chapter 700:02:41.320 : Chapter 800:03:23.320 : Chapter 900:03:26.040 : Chapter 1000:03:31.800 : Chapter 1100:03:36.480 : Chapter 1200:04:01.480 : Chapter 1300:04:05.480 : Chapter 1400:04:12.480 : Chapter 1500:04:40.480 : Chapter 1600:04:48.480 : Chapter 1700:04:51.480 : Chapter 1800:05:26.480 : Chapter 19List (Audio) : 0
Меню #3
ОбщееПолное имя : E:\Delovie_ludi_1962_DVD5_[torrentfilm.net]\VIDEO_TS\VTS_01_1.VOBФормат : MPEG-PSРазмер файла : 1000 МбайтПродолжительность : 27 м.Режим общего битрейта : ПеременныйОбщий поток : 5018 Кбит/сек
ВидеоИдентификатор : 224 (0xE0)Формат : MPEG VideoВерсия формата : Version 2Профиль формата : Main@MainПараметр BVOP формата : ДаПараметр матрицы формата : ВыборочнаяПараметр GOP формата : M=3, N=15Продолжительность : 27 м.Вид битрейта : ПеременныйБитрейт : 4726 Кбит/секМаксимальный битрейт : 6000 Кбит/секШирина : 720 пикселейВысота : 576 пикселейСоотношение сторон : 4:3Частота кадров : 25,000 кадров/секСтандарт вещания : PALЦветовое пространство : YUVСубдискретизация насыщенности : 4:2:0Битовая глубина : 8 битТип развёртки : ЧересстрочнаяПорядок развёртки : Нижнее поле первоеМетод сжатия : С потерямиБит/(Пиксели*Кадры) : 0.456Временной код первого кадра : 00:00:00:00Оригинал временного кода : Group of pictures headerРазмер потока : 942 Мбайт (94%)
АудиоИдентификатор : 189 (0xBD)-128 (0x80)Формат : AC-3Формат/Информация : Audio Coding 3Расширение режима : CM (complete main)Параметр Endianness формата : BigРежим смешивания : DVD-VideoПродолжительность : 27 м.Вид битрейта : ПостоянныйБитрейт : 192 Кбит/секКаналы : 1 каналРасположение каналов : Front: CЧастота : 48,0 КГцБитовая глубина : 16 битМетод сжатия : С потерямиРазмер потока : 38,3 Мбайт (4%)
Меню
ОбщееПолное имя : E:\Delovie_ludi_1962_DVD5_[torrentfilm.net]\VIDEO_TS\VTS_01_2.VOBФормат : MPEG-PSРазмер файла : 1000 МбайтПродолжительность : 24 м.Режим общего битрейта : ПеременныйОбщий поток : 5691 Кбит/сек
ВидеоИдентификатор : 224 (0xE0)Формат : MPEG VideoВерсия формата : Version 2Профиль формата : Main@MainПараметр BVOP формата : ДаПараметр матрицы формата : ВыборочнаяПараметр GOP формата : M=3, N=15Продолжительность : 24 м.Вид битрейта : ПеременныйБитрейт : 5386 Кбит/секМаксимальный битрейт : 8000 Кбит/секШирина : 720 пикселейВысота : 576 пикселейСоотношение сторон : 4:3Частота кадров : 25,000 кадров/секСтандарт вещания : PALЦветовое пространство : YUVСубдискретизация насыщенности : 4:2:0Битовая глубина : 8 битТип развёртки : ЧересстрочнаяПорядок развёртки : Нижнее поле первоеМетод сжатия : С потерямиБит/(Пиксели*Кадры) : 0.519Временной код первого кадра : 00:27:52:10Оригинал временного кода : Group of pictures headerРазмер потока : 946 Мбайт (95%)
АудиоИдентификатор : 189 (0xBD)-128 (0x80)Формат : AC-3Формат/Информация : Audio Coding 3Расширение режима : CM (complete main)Параметр Endianness формата : BigРежим смешивания : DVD-VideoПродолжительность : 24 м.Вид битрейта : ПостоянныйБитрейт : 192 Кбит/секКаналы : 1 каналРасположение каналов : Front: CЧастота : 48,0 КГцБитовая глубина : 16 битМетод сжатия : С потерямиЗадержка видео : -288 мс.Размер потока : 33,7 Мбайт (3%)
Меню
ОбщееПолное имя : E:\Delovie_ludi_1962_DVD5_[torrentfilm.net]\VIDEO_TS\VTS_01_3.VOBФормат : MPEG-PSРазмер файла : 1000 МбайтПродолжительность : 19 м.Режим общего битрейта : ПеременныйОбщий поток : 7092 Кбит/сек
ВидеоИдентификатор : 224 (0xE0)Формат : MPEG VideoВерсия формата : Version 2Профиль формата : Main@MainПараметр BVOP формата : ДаПараметр матрицы формата : ВыборочнаяПараметр GOP формата : M=3, N=15Продолжительность : 19 м.Вид битрейта : ПеременныйБитрейт : 6759 Кбит/секМаксимальный битрейт : 8000 Кбит/секШирина : 720 пикселейВысота : 576 пикселейСоотношение сторон : 4:3Частота кадров : 25,000 кадров/секСтандарт вещания : PALЦветовое пространство : YUVСубдискретизация насыщенности : 4:2:0Битовая глубина : 8 битТип развёртки : ЧересстрочнаяПорядок развёртки : Нижнее поле первоеМетод сжатия : С потерямиБит/(Пиксели*Кадры) : 0.652Временной код первого кадра : 00:52:26:08Оригинал временного кода : Group of pictures headerРазмер потока : 953 Мбайт (95%)
АудиоИдентификатор : 189 (0xBD)-128 (0x80)Формат : AC-3Формат/Информация : Audio Coding 3Расширение режима : CM (complete main)Параметр Endianness формата : BigРежим смешивания : DVD-VideoПродолжительность : 19 м.Вид битрейта : ПостоянныйБитрейт : 192 Кбит/секКаналы : 1 каналРасположение каналов : Front: CЧастота : 48,0 КГцБитовая глубина : 16 битМетод сжатия : С потерямиЗадержка видео : -256 мс.Размер потока : 27,1 Мбайт (3%)
Меню
ОбщееПолное имя : E:\Delovie_ludi_1962_DVD5_[torrentfilm.net]\VIDEO_TS\VTS_01_4.VOBФормат : MPEG-PSРазмер файла : 264 МбайтПродолжительность : 7 м. 36 с.Режим общего битрейта : ПеременныйОбщий поток : 4856 Кбит/сек
ВидеоИдентификатор : 224 (0xE0)Формат : MPEG VideoВерсия формата : Version 2Профиль формата : Main@MainПараметр BVOP формата : ДаПараметр матрицы формата : ВыборочнаяПараметр GOP формата : M=3, N=15Продолжительность : 7 м. 36 с.Вид битрейта : ПеременныйБитрейт : 4567 Кбит/секМаксимальный битрейт : 8000 Кбит/секШирина : 720 пикселейВысота : 576 пикселейСоотношение сторон : 4:3Частота кадров : 25,000 кадров/секСтандарт вещания : PALЦветовое пространство : YUVСубдискретизация насыщенности : 4:2:0Битовая глубина : 8 битТип развёртки : ЧересстрочнаяПорядок развёртки : Нижнее поле первоеМетод сжатия : С потерямиБит/(Пиксели*Кадры) : 0.441Временной код первого кадра : 01:12:09:00Оригинал временного кода : Group of pictures headerРазмер потока : 248 Мбайт (94%)
АудиоИдентификатор : 189 (0xBD)-128 (0x80)Формат : AC-3Формат/Информация : Audio Coding 3Расширение режима : CM (complete main)Параметр Endianness формата : BigРежим смешивания : DVD-VideoПродолжительность : 7 м. 36 с.Вид битрейта : ПостоянныйБитрейт : 192 Кбит/секКаналы : 1 каналРасположение каналов : Front: CЧастота : 48,0 КГцБитовая глубина : 16 битМетод сжатия : С потерямиЗадержка видео : -216 мс.Размер потока : 10,4 Мбайт (4%)
Меню

Дополнительная информация

Дополнительная информация

Раздача: По возможности!!!
[Профиль] [ЛС]

Создавать темы 06-Авг-2015 23:37 (спустя 25 дней)

Топик был перенесен из форума Фильмы (HD DVD, Blu-ray и BDRemux) в форум Фильмы (DVD 5/9)
sergej644
 
Кто просматривает тему:

Показать сообщения:    

Текущее время: Сегодня 02:31

Часовой пояс: GMT



Вы не можете начинать темы
Вы не можете отвечать на сообщения
Вы не можете редактировать свои сообщения
Вы не можете удалять свои сообщения
Вы не можете голосовать в опросах
Вы не можете прикреплять файлы к сообщениям
Вы не можете скачивать файлы