Декстер / Dexter [S01-08] (2006-2013) HDRip | КПК | NovaFilm

 
Автор Сообщение

достали все ®

Пол:

Стаж: 1 год 8 месяцев

Сообщений: 6611



Награды: 12 (Подробнее)

Mega Seeder 1 (Количество: 1) Mega Seeder 2 (Количество: 1) Mega Releaser 3 (Количество: 1)
Торрент-статистика

Создавать темы 18-Фев-2016 13:32

[Цитировать]

Информация о фильме
Название: Декстер
Оригинальное название: Dexter
Год выхода: 2006
Жанр: Триллер, драма, криминал, детектив
Режиссер: Майкл Куэста, Тони Голдуин, Кейт Гордон, Маркос Сига, Тим Хантер
В ролях: Майкл С. Холл, Дженнифер Карпентер, Джули Бенц, Десмонд Харрингтон, К.С. Ли, Лорен Велес, Дэвид Зайас, Джеймс Римар, Колин Хэнкс, Эдвард Джеймс Олмос, Джеффри Пирсон, Айми Гарсиа
О фильме:
У каждого человека есть свои темные и светлые стороны. Полицейский судмедэксперт Декстер Морган по совместительству работает серийным убийцей, по-своему расправляясь с теми, кого официальное правосудие почему-то не может поймать и наказать. Частное правосудие циничного человека, его понятия о справедливости и возмездии оказались чрезвычайно популярными. Декстер показал, как общество скучает по сильному, умному и независимому герою.

Список серий

Сезон 1
01. Декстер / Dexter
02. Крокодиловы слезы / Crocodile
03. Черри со льдом / Popping Cherry
04. Рука Помощи / Let's Give the Boy a Hand
05. Любовь По-Американски / Love American Style
06. Вернуть Отправителю / Return to Sender
07. Ближний Круг / Circle of Friends
08. Психоанализ / Shrink Wrap
09. Отцу виднее / Father Knows Best
10. Жизнь в Красном Цвете / Seeing Red
11. Истина Где-то Рядом / Truth Be Told
12. Рожден свободным / Born Free
Сезон 2
01. Оно живет / It's Alive
02. Вдох, выдох / Waiting to Exhale
03. Верю - не верю / An Inconvenient Lie
04. Увидеть насквозь / See-Through
05. Темный защитник / The Dark Defender
06. Декс, ложь и видео / Dex, Lies, and Videotape
07. И вырос лес в ту ночь / That Night, A Forest Grew
08. Наступает утро / Morning Comes
09. Сопротивление Бесполезно / Resistance Is Futile
10. Кое - что о Гарри / There's Something About Harry
11. Впереди поворот налево / Left Turn Ahead
12. Британское вторжение / The British Invasion
Сезон 3
01. Отче наш / Our Father
02. В поисках Фрибо / Finding Freebo
03. Лев сегодня спит / The Lion Sleeps Tonight
04. Дела Семейные / All In The Family
05. Курс на Бимини / Turning Biminese
06. ...или право имею? / Si se puede
07. Идеальный Пирог / Easy as Pie
08. И грянул гром / The Damage a Man Can Do
09. Кстати, о вчерашней ночи / About Last Night
10. Иди своей дорогой / Go Your Own Way
11. Мне снился сон / I Had a Dream
12. Декстер, как он есть / Do You Take Dexter Morgan?
Сезон 4
01. Не жизнь, а сказка / Living the Dream
02. Невидимые Миру Трупы / Remains to Be Seen
03. Ослепленный Светом / Blinded by the Light
04. Декстер Берёт Выходной / Dex Takes a Holiday
05. Грязный Гарри / Dirty Harry
06. Если бы молот был у меня / If I Had a Hammer
07. Стояние Прилива / Slack Tide
08. Выездное Убийство / Road Kill
09. Изголодавшийся / Hungry Man
10. Пропавшие парни / Lost Boys
11. Здравствуй, Декстер Морган / Hello, Dexter Morgan
12. Бегство / The Getaway
Сезон 5
01. Моя вина / My Bad
02. Привет, Бандит / Hello, Bandit
03. Практически Идеал / Practically Perfect
04. Красавица и Чудовище / Beauty and the Beast
05. Первая Кровь / First Blood
06. Полная ИлЛюменация / Everything Is Illumenated
07. Круг Света / Circle Us
08. Возьми! / Take it!
09. Город Потерянных Детей / Teenage Wasteland
10. В Начале Было... / In the Beginning
11. Уходящий Поезд / Hop a Freighter
12. Самое Главное / The Big One
Сезон 6
01. Прописные Истины / Those Kinds of Things
02. Жили-были... / Once Upon a Time…
03. Смоки и Бандит / Smokey and the Bandit
04. Другой Масти Лошадь / A Horse of a Different Color
05. Ангел Смерти / The Angel of Death
06. Не Держи Зла / Just Let Go
07. Небраска / Nebraska
08. Грех Недеяния / Sin of Omission
09. В Погоне За Гелларом / Get Gellar
10. Кролик Рикошет / Ricochet Rabbit
11. Что Расскажет Рука / Talk to the Hand
12. Так Кончается Мир / This Is the Way the World Ends
Сезон 7
01. Кто ты...? / Are You...?
02. Солнце и Морозный Завиток / Sunshine and Frosty Swirl
03. Против системы / Buck the System
04. Беги / Run
05. Глубокое погружение / Swim Deep
06. Неправильный поступок / Do the Wrong Thing
07. Химия / Chemistry
08. Аргентина / Argentina
09. Все кувырком / Helter Skelter
10. Тёмный... как там его / The Dark… Whatever
11. Ты видишь то, что вижу я? / Do You See What I See?
12. Сюрприз, ублюдок / Surprise, Motherfucker
Сезон 8
01. Прекрасный день / A Beautiful Day
02. Каждая серебряная нить / Every Silver Lining
03. Что гложет Декстера Моргана? / What's Eating Dexter Morgan?
04. Рубцовая ткань / Scar Tissue
05. Этот поросёночек / This Little Piggy
06. Немного размышлений / A Little Reflection
07. Дресс-код / Dress Code
08. Мы уже там? / Are We There Yet?
09. Создай свой собственный вид музыки / Make Your Own Kind of Music
10. Прощай, Майами! / Goodbye Miami!
11. Обезьянка в коробке / Monkey In A Box
12. Помнишь монстров? / Remember the Monsters?
Страна: США
Студия: Clyde Phillips Productions, The Colleton Company, Devilina Productions, John Goldwyn Productions, Showtime Networks Inc
Продолжительность: 96 x ~ 00:54:00
Перевод: Профессиональный (многоголосый, закадровый) [NovaFilm]
Файл
Формат: MP4
Качество: HDRip | КПК
Видео: MPEG-4 AVC (x264), 640x360, ~500 kbps, 23.976 fps
Аудио: AAC LC, 48.0 KHz, 2 ch, 128 Kbps
Субтитры: Нет
Семпл

Скриншоты

MI

Complete name : E:KinoDekster.AVC.KPK.NF.GFDekster.S02.2007.AVC.HDRip.KPK.NF.GFDekster.s02e01.2007.AVC.HDRip.KPK.NF.GF.mp4
Format : MPEG-4
Codec ID : M4V
File size : 242 MiB
Duration : 53mn 20s
Overall bit rate mode : Variable
Overall bit rate : 633 Kbps
Writing application : Lavf53.19.0
Video
ID : 1
Format : AVC
Format/Info : Advanced Video Codec
Format profile : High@L4.1
Format settings, CABAC : Yes
Format settings, ReFrames : 8 frames
Codec ID : avc1
Codec ID/Info : Advanced Video Coding
Duration : 53mn 20s
Source duration : 24mn 42s
Bit rate : 500 Kbps
Width : 640 pixels
Height : 360 pixels
Display aspect ratio : 16:9
Frame rate mode : Constant
Frame rate : 23.976 fps
Color space : YUV
Chroma subsampling : 4:2:0
Bit depth : 8 bits
Scan type : Progressive
Bits/(Pixel*Frame) : 0.091
Stream size : 191 MiB (79%)
Source stream size : 191 MiB (79%)
Writing library : x264 core 130 r2273 b3065e6
Encoding settings : cabac=1 / ref=8 / deblock=1:-2:-2 / analyse=0x3:0x133 / me=umh / subme=10 / psy=1 / psy_rd=1.00:0.00 / mixed_ref=1 / me_range=24 / chroma_me=1 / trellis=2 / 8x8dct=1 / cqm=0 / deadzone=21,11 / fast_pskip=1 / chroma_qp_offset=-2 / threads=3 / lookahead_threads=1 / sliced_threads=0 / nr=0 / decimate=0 / interlaced=0 / bluray_compat=0 / constrained_intra=0 / bframes=8 / b_pyramid=2 / b_adapt=2 / b_bias=0 / direct=3 / weightb=1 / open_gop=0 / weightp=2 / keyint=240 / keyint_min=121 / scenecut=40 / intra_refresh=0 / rc_lookahead=40 / rc=2pass / mbtree=1 / bitrate=500 / ratetol=1.0 / qcomp=0.60 / qpmin=0 / qpmax=69 / qpstep=4 / cplxblur=20.0 / qblur=0.5 / ip_ratio=1.40 / aq=1:1.00
mdhd_Duration : 3200119
Audio
ID : 2
Format : AAC
Format/Info : Advanced Audio Codec
Format profile : LC
Codec ID : 40
Duration : 53mn 18s
Bit rate mode : Variable
Bit rate : 128 Kbps
Channel(s) : 2 channels
Channel positions : Front: L R
Sampling rate : 48.0 KHz
Compression mode : Lossy
Stream size : 48.7 MiB (20%)
Релиз от:
[Профиль] [ЛС]
Показать сообщения:    

Текущее время: Сегодня 13:01

Часовой пояс: GMT



Вы не можете начинать темы
Вы не можете отвечать на сообщения
Вы не можете редактировать свои сообщения
Вы не можете удалять свои сообщения
Вы не можете голосовать в опросах
Вы не можете прикреплять файлы к сообщениям
Вы не можете скачивать файлы